<?xml version="1.0" standalone="no"?>
<!DOCTYPE svg PUBLIC "-//W3C//DTD SVG 1.1//EN" "http://www.w3.org/Graphics/SVG/1.1/DTD/svg11.dtd" >
<svg xmlns="http://www.w3.org/2000/svg" xmlns:xlink="http://www.w3.org/1999/xlink" version="1.1">
<metadata>
Created by FontForge 20201107 at Wed Oct 31 14:16:34 2001
 By Unknown
Copyright (c) 1985, 1987, 1989, 1990, 1997, 1998, 1999 Adobe Systems Incorporated.  All Rights Reserved.Helvetica is a trademark of Linotype-Hell AG and/or its subsidiaries.
</metadata>
<defs>
<font id="HelveticaLT" horiz-adv-x="556" >
  <font-face 
    font-family="Helvetica LT"
    font-weight="400"
    font-stretch="normal"
    units-per-em="1000"
    panose-1="2 0 5 3 4 0 0 2 0 4"
    ascent="800"
    descent="-200"
    x-height="523"
    cap-height="718"
    bbox="-166 -225 1000 931"
    underline-thickness="50"
    underline-position="-125"
    unicode-range="U+0020-FB02"
  />
<missing-glyph horiz-adv-x="278" 
 />
    <glyph glyph-name=".notdef" horiz-adv-x="278" 
 />
    <glyph glyph-name="space" unicode=" " horiz-adv-x="278" 
 />
    <glyph glyph-name="space" unicode="&#xa0;" horiz-adv-x="278" 
 />
    <glyph glyph-name="quotedbl" unicode="&#x22;" horiz-adv-x="355" 
d="M212 718h73v-255h-73v255zM70 718h73v-255h-73v255z" />
    <glyph glyph-name="numbersign" unicode="#" 
d="M226 415l-20 -142h125l19 142h-124zM359 0h-66l29 210h-125l-29 -210h-66l29 210h-103l9 63h103l19 142h-103l9 63h103l29 210h67l-29 -210h124l29 210h67l-29 -210h103l-9 -63h-103l-20 -142h103l-9 -63h-103z" />
    <glyph glyph-name="dollar" unicode="$" 
d="M418 521q-3 20 -8.5 38.5t-18.5 34t-35 27t-56 17.5v-239q51 -15 92 -29t69.5 -35.5t43.5 -54t15 -84.5q0 -64 -23 -105.5t-56.5 -66t-71.5 -34t-69 -9.5v-96h-47v96q-47 3 -87 15t-70 38.5t-47 70t-17 108.5h88q2 -40 9 -67.5t22 -46t39.5 -29t62.5 -16.5v265
q-38 9 -75.5 21.5t-66.5 34t-47 55.5t-18 86q0 40 15.5 76t43.5 62t65.5 41.5t82.5 15.5v64h47v-64q24 -2 57.5 -9t65 -27.5t55 -57t25.5 -96.5h-85zM300 54q33 0 58 10.5t41.5 28t24.5 40.5t8 47q0 42 -23 71.5t-55 39.5l-54 17v-254zM253 638q-29 0 -51 -9.5t-37 -25.5
t-23 -37t-8 -44q0 -27 10 -46.5t27 -33t38 -21.5t44 -12v229z" />
    <glyph glyph-name="percent" unicode="%" horiz-adv-x="889" 
d="M273 -19h-54l395 722h55zM579 164q0 -47 30 -74t70 -27q22 0 40.5 8t32 22t21 32t7.5 39t-8 39t-21.5 31.5t-31.5 21t-39 7.5t-39.5 -8t-32 -21.5t-21.5 -31.5t-8 -38zM509 164q0 36 13.5 66.5t36.5 53.5t54.5 36t66.5 13t66 -13t54 -36t36.5 -54t13.5 -66t-13.5 -66.5
t-36.5 -54.5t-54 -36.5t-66 -13.5t-66.5 13t-54.5 36.5t-36.5 54.5t-13.5 67zM109 526q0 -47 30 -74t70 -27q22 0 40.5 8t32 22t21 32t7.5 39t-8 39t-21.5 31.5t-31.5 21t-39 7.5t-39.5 -8t-32 -21.5t-21.5 -31.5t-8 -38zM39 526q0 36 13.5 66.5t36.5 53.5t54.5 36t66.5 13
t66 -13t54 -36t36.5 -54t13.5 -66t-13.5 -66.5t-36.5 -54.5t-54 -36.5t-66 -13.5t-66.5 13t-54.5 36.5t-36.5 54.5t-13.5 67z" />
    <glyph glyph-name="ampersand" unicode="&#x26;" horiz-adv-x="667" 
d="M645 0h-114l-67 82q-18 -21 -38.5 -39t-45 -30.5t-55.5 -20t-70 -7.5q-67 0 -108.5 21.5t-64 51.5t-30.5 62t-8 53q0 37 6.5 66t24.5 55.5t49.5 51.5t81.5 53q-20 24 -34 43t-23.5 37t-14 37t-4.5 42q0 31 11 60t32.5 51t53.5 35.5t73 13.5q42 0 72.5 -13t50 -34
t29 -47.5t9.5 -53.5q0 -38 -12.5 -67t-32 -51.5t-42 -39.5t-42.5 -30l131 -156q6 16 10 28.5t7 24.5t6 25.5t6 33.5h83q-3 -37 -16.5 -84.5t-41.5 -98.5zM286 439q14 10 30 22t29.5 27t22 33.5t8.5 41.5q0 24 -8 39.5t-19.5 24t-25 12t-24.5 3.5q-28 0 -44.5 -9t-25.5 -21
t-11.5 -25.5t-2.5 -22.5q0 -18 7.5 -36t18 -34.5t23 -30.5t22.5 -24zM255 339q-29 -18 -52 -34.5t-38.5 -34.5t-24 -39.5t-8.5 -50.5q0 -34 14.5 -56.5t35 -36.5t42.5 -20t37 -6q98 0 156 80z" />
    <glyph glyph-name="quotesingle" unicode="'" horiz-adv-x="191" 
d="M59 718h73v-255h-73v255z" />
    <glyph glyph-name="parenleft" unicode="(" horiz-adv-x="333" 
d="M298 733q-32 -60 -57 -111.5t-42.5 -107t-27 -121.5t-9.5 -156q0 -62 10 -117t28.5 -108t43.5 -106.5t55 -112.5h-59q-39 58 -71 112.5t-54.5 110t-34.5 115.5t-12 130q0 66 11 126.5t33 118t53 113.5t72 114h61z" />
    <glyph glyph-name="parenright" unicode=")" horiz-adv-x="333" 
d="M35 -207q32 60 57 111t42.5 106.5t27 122t9.5 156.5q0 62 -10 117t-28.5 108t-43.5 106.5t-55 112.5h59q39 -59 70.5 -113t54 -109.5t35 -115.5t12.5 -130q0 -66 -11 -126.5t-33 -118t-53.5 -113.5t-71.5 -114h-61z" />
    <glyph glyph-name="asterisk" unicode="*" horiz-adv-x="389" 
d="M59 646l105 -38v110h60v-110l105 38l20 -55l-108 -34l67 -92l-49 -34l-65 94l-65 -94l-49 34l67 92l-108 34z" />
    <glyph glyph-name="plus" unicode="+" horiz-adv-x="584" 
d="M256 505h73v-216h216v-73h-216v-216h-73v216h-217v73h217v216z" />
    <glyph glyph-name="comma" unicode="," horiz-adv-x="278" 
d="M87 106h104v-98q0 -51 -13.5 -81t-31 -46t-35 -21.5t-24.5 -6.5v46q16 1 26 10.5t16 24t8.5 31.5t2.5 35h-53v106z" />
    <glyph glyph-name="hyphen" unicode="-" horiz-adv-x="333" 
d="M289 232h-245v90h245v-90z" />
    <glyph glyph-name="hyphen" unicode="&#xad;" horiz-adv-x="333" 
d="M289 232h-245v90h245v-90z" />
    <glyph glyph-name="period" unicode="." horiz-adv-x="278" 
d="M191 0h-104v106h104v-106z" />
    <glyph glyph-name="slash" unicode="/" horiz-adv-x="278" 
d="M50 -19h-67l246 756h66z" />
    <glyph glyph-name="zero" unicode="0" 
d="M519 342q0 -55 -9.5 -118t-35.5 -117t-73 -90t-123 -36t-123 36t-73.5 90t-35.5 117t-9 118t9 118t35.5 117t73.5 90t123 36t123 -36t73 -90t35.5 -117t9.5 -118zM425 342q0 132 -35.5 207t-111.5 75t-111.5 -75t-35.5 -207t35.5 -207t111.5 -75t111.5 75t35.5 207z" />
    <glyph glyph-name="one" unicode="1" 
d="M359 0h-94v499h-164v70q43 3 74 8t53 18.5t36.5 39t25.5 68.5h69v-703z" />
    <glyph glyph-name="two" unicode="2" 
d="M44 451q0 57 12.5 98t33.5 69t47 45t53 25.5t52.5 11.5t44.5 3q46 0 86 -14.5t70 -41.5t47 -66t17 -88q0 -47 -14.5 -82t-40 -62t-60 -48.5t-73.5 -42.5l-73 -40q-36 -20 -59 -39.5t-36 -37.5t-19 -33t-7 -25h382v-83h-481q2 55 14.5 97.5t34.5 76t51.5 59t64.5 46.5
l93 54q28 16 51.5 31t41 33t27 41.5t9.5 58.5q0 21 -7 43.5t-23.5 41t-43 30.5t-65.5 12q-50 0 -78 -20t-42 -48t-17.5 -57.5t-4.5 -47.5h-88z" />
    <glyph glyph-name="three" unicode="3" 
d="M224 400q11 -1 23 -1.5t23 -0.5q25 0 49.5 5.5t43 19t30 35.5t11.5 55q0 16 -5.5 35t-20 36t-40 28.5t-64.5 11.5q-47 0 -73.5 -16.5t-40 -40.5t-18 -50t-5.5 -44h-86q0 39 9.5 79.5t34.5 74t69.5 55t113.5 21.5q51 0 91.5 -14t68 -38.5t42.5 -58.5t15 -74
q0 -34 -8.5 -59t-22 -42.5t-29.5 -28.5t-30 -15v-2q51 -17 84 -55t33 -109q0 -43 -14.5 -84t-45 -72.5t-78.5 -50.5t-115 -19q-39 0 -71.5 8.5t-58.5 22.5q-29 15 -48.5 37.5t-31 49t-17.5 56.5t-8 60h91q1 -25 6 -52t21 -50t45 -38t78 -15q34 0 62 10t48 28t31.5 43
t11.5 55q0 44 -17 70t-42.5 39t-54 16.5t-50.5 3.5q-10 0 -20 -0.5t-20 -0.5v76z" />
    <glyph glyph-name="four" unicode="4" 
d="M106 247h226v319h-2zM420 171v-171h-88v171h-307v86l322 446h73v-456h103v-76h-103z" />
    <glyph glyph-name="five" unicode="5" 
d="M147 409q23 17 55.5 30.5t80.5 13.5q43 0 84.5 -15t74 -43.5t52.5 -70.5t20 -96q0 -29 -9 -71.5t-36 -81.5t-77.5 -66.5t-132.5 -27.5q-35 0 -72 8t-69.5 30t-56 59.5t-29.5 96.5h91q7 -62 48 -90t101 -28q34 0 61.5 13t46.5 34.5t29.5 51t10.5 62.5q0 38 -12 67t-33 49
t-49.5 30t-61.5 10q-38 0 -71.5 -17.5t-58.5 -49.5l-76 4l53 377h364v-86h-298z" />
    <glyph glyph-name="six" unicode="6" 
d="M141 216q0 -28 8.5 -56t26.5 -50t46 -36t67 -14q31 0 56.5 12t43.5 33t28 50.5t10 65.5q0 23 -7 49t-23.5 48t-43.5 36.5t-68 14.5q-36 0 -63 -12t-45 -33t-27 -49t-9 -59zM417 516q-8 47 -36 77.5t-85 30.5q-52 0 -84.5 -30t-51 -72t-25 -86t-6.5 -72l2 -2
q8 14 21.5 29.5t34 28t48 20.5t63.5 8q32 0 70.5 -11t71.5 -37.5t55.5 -69t22.5 -105.5q0 -54 -15.5 -95.5t-51.5 -80.5q-14 -15 -29.5 -27.5t-36 -21.5t-48 -14t-64.5 -5q-20 0 -44 5t-48 17t-47 31.5t-42 48.5q-32 50 -43 112.5t-11 131.5q0 39 4.5 81.5t16 84.5t30.5 80
t48 67t68.5 46t92.5 17q30 0 64.5 -9t64.5 -31t51.5 -57.5t24.5 -89.5h-86z" />
    <glyph glyph-name="seven" unicode="7" 
d="M37 688h486v-77q-26 -27 -67.5 -82t-84 -133t-80.5 -178t-57 -218h-97q9 72 36 153t66 161.5t86.5 154.5t98.5 133h-387v86z" />
    <glyph glyph-name="eight" unicode="8" 
d="M276 406q57 0 91 32.5t34 80.5q0 16 -6 34.5t-21 34t-40 26t-64 10.5q-35 0 -58 -11t-36 -27.5t-18 -35.5t-5 -36q0 -25 10 -45t27.5 -34t39.5 -21.5t46 -7.5zM277 330q-37 0 -64.5 -11t-45.5 -29.5t-26.5 -42t-8.5 -47.5q0 -21 6.5 -45.5t23 -45.5t45.5 -35t75 -14
q24 0 49 5.5t45.5 20t33.5 40.5t13 67q0 36 -11.5 61.5t-31.5 42.5t-46.5 25t-56.5 8zM492 522q0 -38 -9.5 -63.5t-23.5 -42.5t-29.5 -26.5t-27.5 -15.5q36 -15 58 -36t35 -44.5t17.5 -47t4.5 -43.5q0 -42 -14 -82t-43 -71t-74 -50t-107 -19q-15 0 -35 2t-43 8t-46.5 16.5
t-44.5 27.5q-27 21 -41.5 45t-21.5 47t-8 42.5t-1 32.5q0 65 31.5 106.5t87.5 64.5q-45 17 -70 52t-25 85q0 27 9.5 61t34 63t65.5 49t104 20q58 0 99.5 -17t67.5 -43t38 -58t12 -63z" />
    <glyph glyph-name="nine" unicode="9" 
d="M276 314q17 0 40.5 5.5t44.5 22.5t35.5 48.5t14.5 83.5q0 30 -8 57t-25 48t-44 33t-65 12q-62 0 -99 -43.5t-37 -114.5q0 -51 14 -81t35.5 -45.5t46.5 -20.5t47 -5zM263 235q-49 0 -89.5 16t-70 45t-45.5 71t-16 95q0 48 14.5 91.5t43 77t70.5 53t98 19.5t96 -16
t67.5 -43t43.5 -61.5t25 -70.5t11.5 -71.5t2.5 -63.5q0 -19 -2 -55.5t-10.5 -80.5t-24.5 -90t-44.5 -84t-71 -62t-102.5 -24q-62 0 -102.5 20t-64 48.5t-33 61t-9.5 58.5h88q4 -54 34.5 -84.5t84.5 -30.5q72 0 112 63t57 200l-2 2q-10 -20 -27 -36t-39 -26.5t-46.5 -16
t-48.5 -5.5z" />
    <glyph glyph-name="colon" unicode=":" horiz-adv-x="278" 
d="M191 410h-104v106h104v-106zM191 0h-104v106h104v-106z" />
    <glyph glyph-name="semicolon" unicode=";" horiz-adv-x="278" 
d="M87 410v106h104v-106h-104zM87 106h104v-98q0 -51 -13.5 -81t-31 -46t-35 -21.5t-24.5 -6.5v46q16 1 26 10.5t16 24t8.5 31.5t2.5 35h-53v106z" />
    <glyph glyph-name="semicolon" unicode="&#x37e;" horiz-adv-x="278" 
d="M87 410v106h104v-106h-104zM87 106h104v-98q0 -51 -13.5 -81t-31 -46t-35 -21.5t-24.5 -6.5v46q16 1 26 10.5t16 24t8.5 31.5t2.5 35h-53v106z" />
    <glyph glyph-name="less" unicode="&#x3c;" horiz-adv-x="584" 
d="M536 11l-488 207v70l488 207v-80l-390 -162l390 -162v-80z" />
    <glyph glyph-name="equal" unicode="=" horiz-adv-x="584" 
d="M545 115h-506v73h506v-73zM545 317h-506v73h506v-73z" />
    <glyph glyph-name="greater" unicode="&#x3e;" horiz-adv-x="584" 
d="M48 495l488 -207v-70l-488 -207v80l390 162l-390 162v80z" />
    <glyph glyph-name="question" unicode="?" 
d="M318 0h-97v102h97v-102zM56 493q1 25 3.5 50t10 48.5t23 46t42.5 43.5q30 23 67.5 34.5t77.5 11.5q42 0 80.5 -12.5t67.5 -37.5t46.5 -61.5t17.5 -84.5q0 -25 -5 -44.5t-16.5 -38.5t-29.5 -38.5t-43 -43.5q-23 -22 -39.5 -39t-27 -35.5t-15.5 -41.5t-5 -57v-10h-88
q0 43 5 71.5t16 51.5t29.5 44t44.5 48q25 25 40.5 42t24.5 31.5t12 29.5t3 36q0 16 -5.5 35.5t-19 37t-37 29.5t-59.5 12q-48 0 -75 -18.5t-39.5 -44t-15.5 -52.5t-3 -43h-88z" />
    <glyph glyph-name="at" unicode="@" horiz-adv-x="1015" 
d="M662 556h68q-14 -53 -30 -106.5t-29.5 -99t-22 -78t-8.5 -42.5q0 -14 4.5 -21.5t16.5 -7.5q25 0 50.5 18.5t46 49t33 69.5t12.5 79q0 60 -22.5 108t-60.5 81t-88.5 51t-107.5 18q-67 0 -122.5 -25t-96 -68.5t-63 -102t-22.5 -124.5t24 -123t66 -99t98.5 -66t122.5 -24
q70 0 135 30.5t108 83.5h67q-24 -41 -58 -73.5t-74.5 -55.5t-86 -35t-93.5 -12q-80 0 -150 29.5t-121.5 80.5t-81 120.5t-29.5 149.5q0 78 30 146.5t81.5 119.5t120 80.5t145.5 29.5q69 0 131.5 -23t110 -64.5t75 -99t27.5 -125.5t-25 -121.5t-61.5 -91t-78 -57t-74.5 -19.5
q-26 0 -44 15.5t-20 47.5l-2 -1q-22 -23 -53.5 -42.5t-66.5 -19.5q-32 0 -59 13t-46.5 34.5t-30.5 50.5t-11 62q0 51 16.5 100.5t47 88.5t73 63t94.5 24q36 0 65.5 -18t49.5 -60zM611 408q0 18 -6.5 35t-18 29.5t-26.5 20t-31 7.5q-33 0 -61 -19t-48 -47.5t-31 -63
t-11 -65.5q0 -43 23 -70t61 -27q32 0 59 20t47 50t31.5 65t11.5 65z" />
    <glyph glyph-name="A" unicode="A" horiz-adv-x="667" 
d="M442 295l-106 316h-2l-115 -316h223zM189 209l-75 -209h-100l270 718h110l260 -718h-106l-71 209h-288z" />
    <glyph glyph-name="B" unicode="B" horiz-adv-x="667" 
d="M171 83h207q76 0 114 35.5t38 95.5q0 38 -15 61.5t-39 37t-54 18t-60 4.5h-191v-252zM74 718h316q50 0 88 -14.5t63.5 -39.5t38.5 -57.5t13 -69.5q0 -18 -4 -38.5t-14.5 -40.5t-29 -38.5t-48.5 -32.5q18 -7 40.5 -18t42.5 -30.5t33.5 -50t13.5 -76.5q0 -43 -16 -81.5
t-46.5 -67.5t-76 -46t-105.5 -17h-309v718zM171 414h175q70 0 110 25t40 91q0 51 -34 78t-115 27h-176v-221z" />
    <glyph glyph-name="C" unicode="C" horiz-adv-x="722" 
d="M580 502q-10 47 -33 76.5t-51.5 45.5t-59.5 21.5t-57 5.5q-49 0 -91.5 -18t-74.5 -53.5t-50.5 -89t-18.5 -124.5q0 -63 12 -118t40 -95t73.5 -63t112.5 -23q24 0 54 7.5t59.5 28.5t54.5 59.5t37 101.5h94q-10 -68 -33.5 -115t-54 -78.5t-64.5 -49.5t-65.5 -27t-57.5 -11
t-39 -2q-61 0 -119 21t-103.5 66.5t-73 118t-27.5 176.5q0 83 23 151.5t66 118t105.5 77t140.5 27.5q69 0 122 -20t89.5 -52.5t57.5 -75t26 -87.5h-94z" />
    <glyph glyph-name="D" unicode="D" horiz-adv-x="722" 
d="M178 83h188q95 0 151.5 71.5t56.5 208.5q0 136 -58 204t-157 68h-181v-552zM81 718h291q70 0 126 -25.5t95 -71.5t60 -110t21 -142q0 -60 -14.5 -125.5t-50 -119.5t-94.5 -89t-147 -35h-287v718z" />
    <glyph glyph-name="E" unicode="E" horiz-adv-x="667" 
d="M616 0h-530v718h523v-86h-426v-220h393v-86h-393v-240h433v-86z" />
    <glyph glyph-name="F" unicode="F" horiz-adv-x="611" 
d="M183 0h-97v718h497v-86h-400v-220h352v-86h-352v-326z" />
    <glyph glyph-name="G" unicode="G" horiz-adv-x="778" 
d="M389 384h315v-384h-63l-23 93q-37 -51 -100 -81.5t-137 -30.5q-46 0 -81 7.5t-61.5 19.5t-45 26t-32.5 28q-41 39 -64 80.5t-34 81.5t-13 76t-2 65q0 66 20 132t62 119.5t106 87t152 33.5q50 0 101 -14.5t93.5 -43.5t72 -74t37.5 -105h-94q-12 47 -36 76.5t-54 46
t-62.5 22.5t-62.5 6q-48 0 -91 -19t-75 -56t-50.5 -91.5t-18.5 -124.5q0 -55 10.5 -108t37.5 -95t73 -67.5t118 -25.5q13 0 30.5 1.5t36.5 6t39.5 13.5t40.5 25q47 37 63 85t16 106h-224v83z" />
    <glyph glyph-name="H" unicode="H" horiz-adv-x="722" 
d="M549 718h97v-718h-97v335h-375v-335h-97v718h97v-297h375v297z" />
    <glyph glyph-name="I" unicode="I" horiz-adv-x="278" 
d="M188 0h-97v718h97v-718z" />
    <glyph glyph-name="J" unicode="J" horiz-adv-x="500" 
d="M108 231v-50q0 -65 28.5 -91t79.5 -26q34 0 56 9.5t35 26t18.5 39.5t5.5 49v530h97v-524q0 -63 -18.5 -104t-48.5 -65.5t-67 -34t-73 -9.5q-63 0 -102.5 18.5t-62 46t-31 58.5t-8.5 56v71h91z" />
    <glyph glyph-name="K" unicode="K" horiz-adv-x="667" 
d="M173 0h-97v718h97v-348l348 348h134l-299 -290l307 -428h-126l-251 360l-113 -108v-252z" />
    <glyph glyph-name="L" unicode="L" 
d="M173 86h364v-86h-461v718h97v-632z" />
    <glyph glyph-name="M" unicode="M" horiz-adv-x="833" 
d="M667 0v424q0 8 0.5 27.5t0.5 44.5q0 26 0.5 54t0.5 53h-2l-202 -603h-96l-202 602h-2q0 -25 0.5 -53t0.5 -53t0.5 -44.5t0.5 -27.5v-424h-94v718h139l205 -607h2l204 607h138v-718h-94z" />
    <glyph glyph-name="N" unicode="N" horiz-adv-x="722" 
d="M552 718h94v-718h-109l-365 580h-2v-580h-94v718h115l359 -580h2v580z" />
    <glyph glyph-name="O" unicode="O" horiz-adv-x="778" 
d="M739 359q0 -39 -7.5 -82t-24 -85t-43 -80t-65.5 -67.5t-91 -46.5t-119 -17t-119 17t-91 46.5t-65.5 67.5t-43 80t-24 85t-7.5 82t7.5 82t24 85t43 80t65.5 67.5t91 46.5t119 17t119 -17t91 -46.5t65.5 -67.5t43 -80t24 -85t7.5 -82zM639 359q0 63 -17 116.5t-49.5 92.5
t-79 61t-104.5 22q-59 0 -105 -22t-78.5 -61t-49.5 -92.5t-17 -116.5t17 -116.5t49.5 -92.5t78.5 -61t105 -22q58 0 104.5 22t79 61t49.5 92.5t17 116.5z" />
    <glyph glyph-name="P" unicode="P" horiz-adv-x="667" 
d="M183 0h-97v718h323q50 0 89.5 -15.5t67 -42.5t42 -64t14.5 -80q0 -38 -11.5 -75.5t-36.5 -68.5t-66 -50t-99 -19h-226v-303zM183 386h193q33 0 59.5 6.5t46 21.5t30 40t10.5 61q0 34 -11 57t-30 37t-45 20t-56 6h-197v-249z" />
    <glyph glyph-name="Q" unicode="Q" horiz-adv-x="778" 
d="M684 -56l-110 85q-35 -23 -81.5 -35.5t-103.5 -12.5q-67 0 -119 17t-91 46.5t-65.5 67.5t-43 80t-24 85t-7.5 82t7.5 82t24 85t43 80t65.5 67.5t91 46.5t119 17t119 -17t91 -46.5t65.5 -67.5t43 -80t24 -85t7.5 -82q0 -34 -5.5 -71.5t-18 -74.5t-32.5 -71.5t-48 -63.5
l98 -76zM469 208l91 -71q38 38 58.5 95.5t20.5 126.5q0 63 -17 116.5t-49.5 92.5t-79 61t-104.5 22q-59 0 -105 -22t-78.5 -61t-49.5 -92.5t-17 -116.5t17 -116.5t49.5 -92.5t78.5 -61t105 -22q60 0 106 23l-75 58z" />
    <glyph glyph-name="R" unicode="R" horiz-adv-x="722" 
d="M185 391h225q27 0 53 4.5t46.5 18t33.5 37.5t13 64q0 42 -13.5 66t-33 36t-42 15t-40.5 3h-242v-244zM185 0h-97v718h332q44 0 86.5 -9t75.5 -30.5t53.5 -59t20.5 -94.5q0 -40 -9 -68t-23.5 -47.5t-32.5 -33t-35 -23.5q15 -6 30 -14t27 -22.5t19.5 -38t9.5 -60.5l6 -130
q0 -15 1.5 -25.5t5.5 -19t11 -15t18 -12.5v-16h-119q-5 16 -8.5 42.5t-5.5 53.5t-2.5 50.5t-0.5 33.5q0 22 -3.5 45t-17 41.5t-39 30t-68.5 11.5h-235v-308z" />
    <glyph glyph-name="S" unicode="S" horiz-adv-x="667" 
d="M509 508q-2 42 -18.5 70t-42 45t-56.5 24t-61 7q-23 0 -51.5 -4.5t-53.5 -18t-42 -38t-17 -65.5q0 -23 7.5 -38.5t19.5 -26t27 -16.5t31 -10l205 -47q35 -8 65 -23t51.5 -38.5t34 -55.5t12.5 -75q0 -64 -26.5 -106t-68 -66.5t-91 -34.5t-95.5 -10q-50 0 -85.5 6.5t-61 17
t-42 22.5t-28.5 23q-46 42 -59.5 86.5t-13.5 95.5h91q0 -49 18 -81t46.5 -51.5t63.5 -27.5t70 -8q26 0 59 4.5t61.5 17.5t48 36.5t19.5 62.5q0 28 -7.5 47.5t-25 33.5t-47 24.5t-73.5 21.5l-147 34q-18 4 -44 13.5t-50 28.5t-41.5 49.5t-17.5 77.5q0 42 14 82t44 71t77 50
t112 19q94 0 149 -24.5t83.5 -60t37 -75t10.5 -69.5h-91z" />
    <glyph glyph-name="T" unicode="T" horiz-adv-x="611" 
d="M14 718h583v-86h-243v-632h-97v632h-243v86z" />
    <glyph glyph-name="U" unicode="U" horiz-adv-x="722" 
d="M644 718v-466q0 -55 -17.5 -104.5t-53 -86.5t-90 -58.5t-128.5 -21.5q-72 0 -124.5 21.5t-86 57.5t-49.5 82.5t-16 96.5v479h97v-452q0 -59 16 -97t42 -61t58.5 -32t65.5 -9t67 9t61 31t44 60t17 97v454h97z" />
    <glyph glyph-name="V" unicode="V" horiz-adv-x="667" 
d="M538 718h109l-262 -718h-103l-262 718h108l205 -612h2z" />
    <glyph glyph-name="W" unicode="W" horiz-adv-x="944" 
d="M305 0h-102l-187 718h105l134 -584h2l161 584h106l161 -584h2l134 584h107l-189 -718h-102l-164 595h-2z" />
    <glyph glyph-name="X" unicode="X" horiz-adv-x="667" 
d="M648 0h-120l-193 295l-199 -295h-117l257 368l-241 350h122l182 -275l182 275h116l-241 -350z" />
    <glyph glyph-name="Y" unicode="Y" horiz-adv-x="667" 
d="M382 0h-97v289l-271 429h113l206 -345l206 345h114l-271 -429v-289z" />
    <glyph glyph-name="Z" unicode="Z" horiz-adv-x="611" 
d="M588 0h-565v81l440 551h-407v86h532v-84l-442 -548h442v-86z" />
    <glyph glyph-name="bracketleft" unicode="[" horiz-adv-x="278" 
d="M142 -125h108v-71h-187v918h187v-71h-108v-776z" />
    <glyph glyph-name="backslash" unicode="\" horiz-adv-x="278" 
d="M-17 737h66l246 -756h-67z" />
    <glyph glyph-name="bracketright" unicode="]" horiz-adv-x="278" 
d="M136 651h-108v71h187v-918h-187v71h108v776z" />
    <glyph glyph-name="asciicircum" unicode="^" horiz-adv-x="469" 
d="M406 264l-171 344l-171 -344h-78l213 424h72l212 -424h-77z" />
    <glyph glyph-name="underscore" unicode="_" 
d="M556 -75v-50h-556v50h556z" />
    <glyph glyph-name="grave" unicode="`" horiz-adv-x="333" 
d="M14 734h108l89 -141h-67z" />
    <glyph glyph-name="a" unicode="a" 
d="M384 267q-5 -4 -13 -8t-24 -7.5t-41.5 -8t-66.5 -9.5q-16 -2 -35.5 -6.5t-36.5 -13.5t-28.5 -24.5t-11.5 -40.5q0 -43 22.5 -67t72.5 -24q31 0 60 9.5t51.5 26t36.5 39t14 48.5v86zM62 364q1 47 17 80t44 54t67.5 30.5t87.5 9.5q10 0 28.5 -1.5t40.5 -6.5t44 -14.5
t40 -26t29.5 -40.5t11.5 -57v-301q0 -31 29 -31q6 0 13.5 1t15.5 3v-64q-11 -3 -22 -6.5t-26 -3.5q-29 0 -47 7t-27.5 18t-13.5 25.5t-5 29.5q-13 -14 -29.5 -29t-39.5 -27.5t-52.5 -20.5t-67.5 -8q-36 0 -66 11t-52 31t-34 47.5t-12 61.5q0 16 4.5 41.5t20.5 50.5t47.5 45
t86.5 27l145 18q8 1 16 3.5t15 9t11 18t4 31.5q0 85 -123 85q-38 0 -60.5 -10t-35 -25.5t-17.5 -33t-7 -32.5h-81z" />
    <glyph glyph-name="b" unicode="b" 
d="M426 263q0 25 -3 59t-17.5 64.5t-43 51.5t-79.5 21q-48 0 -76 -22.5t-42.5 -56.5t-18.5 -72.5t-4 -70.5q0 -52 14.5 -86t36 -54t46.5 -28t46 -8q36 0 62.5 15.5t44 42.5t26 64t8.5 80zM58 0v718h88v-261h2q29 42 67 61t84 20q52 0 92.5 -20t68.5 -55.5t42.5 -83
t14.5 -102.5q0 -47 -11 -98.5t-37.5 -94.5t-70.5 -71t-111 -28q-33 0 -57.5 8.5t-41.5 20.5t-27.5 26t-17.5 25h-2v-65h-83z" />
    <glyph glyph-name="c" unicode="c" horiz-adv-x="500" 
d="M392 347q-8 53 -38 82.5t-86 29.5q-41 0 -68.5 -17.5t-44.5 -46t-24 -63.5t-7 -70q0 -34 5.5 -69.5t21 -65t43.5 -48t73 -18.5t79.5 32t45.5 92h85q-3 -31 -15.5 -66t-37 -65t-64 -49.5t-96.5 -19.5q-55 0 -98.5 19.5t-73.5 54.5t-46 83t-16 105q0 61 15 114t45.5 92.5
t78 62t112.5 22.5q51 0 87 -17t59.5 -44.5t35 -61.5t14.5 -68h-85z" />
    <glyph glyph-name="d" unicode="d" 
d="M126 263q0 -43 8.5 -80t26 -64t44 -42.5t62.5 -15.5q21 0 46 8t46.5 28t36 54t14.5 86q0 32 -4 70.5t-18.5 72.5t-42.5 56.5t-76 22.5q-51 0 -79.5 -21t-43 -51.5t-17.5 -64.5t-3 -59zM499 0h-83v72h-2q-14 -27 -32 -43.5t-37.5 -26.5t-40 -13.5t-39.5 -3.5
q-67 0 -111 28t-70.5 71t-37.5 94.5t-11 98.5q0 55 14.5 102.5t42.5 83t68.5 55.5t92.5 20q36 0 61.5 -9.5t44 -23.5t30.5 -29.5t20 -26.5h2v269h88v-718z" />
    <glyph glyph-name="e" unicode="e" 
d="M425 303q-2 30 -10 58.5t-25 50t-44 34.5t-67 13q-30 0 -56.5 -13t-46 -34.5t-31 -50t-11.5 -58.5h291zM509 164q-1 -9 -6.5 -26.5t-16.5 -38t-28 -41.5t-42 -37q-9 -6 -20.5 -12.5t-28 -11.5t-39.5 -8.5t-54 -3.5q-55 0 -98.5 19.5t-73.5 54.5t-46 83t-16 105
q0 61 15 114t45.5 92.5t78 62t112.5 22.5q57 0 99 -21.5t70 -61.5t42 -96.5t14 -125.5h-382q0 -82 38 -127t114 -45q31 0 55.5 10.5t42 26.5t27 33.5t10.5 32.5h88z" />
    <glyph glyph-name="f" unicode="f" horiz-adv-x="278" 
d="M174 450v-450h-88v450h-72v73h72v90q0 60 35.5 87.5t100.5 27.5q10 0 19.5 -0.5t20.5 -1.5v-79q-8 1 -18 1.5t-18 0.5q-29 0 -40.5 -14.5t-11.5 -46.5v-65h88v-73h-88z" />
    <glyph glyph-name="g" unicode="g" 
d="M499 43q0 -19 -1 -45.5t-8 -56t-21.5 -58.5t-41.5 -51.5t-69 -37t-102 -14.5q-23 0 -55 5t-62 21t-53.5 47t-29.5 83h88q6 -31 22 -48t35 -24.5t36 -9t25 -1.5q55 0 85 18.5t44 46t17 58t3 54.5v29q-19 -32 -53.5 -53t-87.5 -21q-67 0 -111 28t-70.5 71t-37.5 94.5
t-11 98.5q0 55 14.5 102.5t42.5 83t68.5 55.5t92.5 20q36 0 62 -10t44.5 -24t31 -30t20.5 -28v77h83v-480zM131 263q0 -43 8.5 -80t26 -64t44 -42.5t62.5 -15.5q21 0 46 8t46.5 28t36 54t14.5 86q0 32 -4 70.5t-18.5 72.5t-42.5 56.5t-76 22.5q-51 0 -79.5 -21t-43 -51.5
t-17.5 -64.5t-3 -59z" />
    <glyph glyph-name="h" unicode="h" 
d="M491 0h-88v342q0 27 -4.5 48.5t-16 36.5t-32 23.5t-51.5 8.5q-27 0 -53 -8.5t-47 -29t-33.5 -54t-12.5 -82.5v-285h-88v718h88v-265h2q9 12 22.5 27t32 28t42.5 21.5t56 8.5q30 0 62.5 -7.5t59.5 -27.5t44 -55.5t17 -91.5v-356z" />
    <glyph glyph-name="i" unicode="i" horiz-adv-x="222" 
d="M67 618v100h88v-100h-88zM155 0h-88v523h88v-523z" />
    <glyph glyph-name="j" unicode="j" horiz-adv-x="222" 
d="M155 618h-88v100h88v-100zM155 -77q0 -17 -2.5 -40t-15.5 -43.5t-40 -35t-76 -14.5q-18 0 -37 3v76h18q19 0 32 1.5t20 8t10 19.5t3 35v590h88v-600z" />
    <glyph glyph-name="k" unicode="k" horiz-adv-x="500" 
d="M501 0h-113l-163 264l-73 -66v-198h-85v718h85v-416l225 221h112l-200 -195z" />
    <glyph glyph-name="l" unicode="l" horiz-adv-x="222" 
d="M155 0h-88v718h88v-718z" />
    <glyph glyph-name="m" unicode="m" horiz-adv-x="833" 
d="M65 523h83v-74h2q7 10 19.5 25.5t31.5 29.5t45.5 24t61.5 10t59 -9.5t40 -22.5t25 -28l15 -25q16 18 32 34t34 27t41 17.5t53 6.5q21 0 49 -7t53 -26t42.5 -53.5t17.5 -89.5v-362h-88v338q0 54 -20.5 87.5t-76.5 33.5q-28 0 -50.5 -12t-38.5 -31.5t-25 -45t-9 -51.5v-319
h-88v362q0 16 -3.5 33.5t-13 31.5t-25.5 23t-40 9q-19 0 -43 -7t-45 -26.5t-35.5 -53.5t-14.5 -87v-285h-88v523z" />
    <glyph glyph-name="n" unicode="n" 
d="M491 0h-88v322q0 68 -24 102.5t-88 34.5q-19 0 -43 -7t-45 -26.5t-35.5 -53.5t-14.5 -87v-285h-88v523h83v-74h2q7 10 20 25.5t32.5 29.5t45.5 24t60 10q30 0 62.5 -7.5t59.5 -27.5t44 -55.5t17 -91.5v-356z" />
    <glyph glyph-name="o" unicode="o" 
d="M126 262q0 -26 6 -60.5t22.5 -65.5t46.5 -52.5t77 -21.5t77 21.5t46.5 52.5t22.5 65.5t6 60.5t-6 60.5t-22.5 65.5t-46.5 52.5t-77 21.5t-77 -21.5t-46.5 -52.5t-22.5 -65.5t-6 -60.5zM35 262q0 51 14.5 100.5t44.5 88.5t75.5 63t108.5 24t108.5 -24t75.5 -63t44.5 -88.5
t14.5 -100.5t-14.5 -100.5t-44.5 -88.5t-75.5 -63t-108.5 -24t-108.5 24t-75.5 63t-44.5 88.5t-14.5 100.5z" />
    <glyph glyph-name="p" unicode="p" 
d="M58 523h83v-74h2q8 11 20 26.5t30.5 29.5t44 23.5t61.5 9.5q52 0 92.5 -20t68.5 -55.5t42.5 -83t14.5 -102.5q0 -47 -11 -98.5t-37.5 -94.5t-70.5 -71t-111 -28q-53 0 -87.5 21t-51.5 49h-2v-262h-88v730zM142 237q0 -52 14.5 -86t36 -54t46.5 -28t46 -8q36 0 62.5 15.5
t44 42.5t26 64t8.5 80q0 25 -3 59t-17.5 64.5t-43 51.5t-79.5 21q-48 0 -76 -22.5t-42.5 -56.5t-18.5 -72.5t-4 -70.5z" />
    <glyph glyph-name="q" unicode="q" 
d="M410 237q0 32 -4 70.5t-18.5 72.5t-42.5 56.5t-76 22.5q-51 0 -79.5 -21t-43 -51.5t-17.5 -64.5t-3 -59q0 -43 8.5 -80t26 -64t44 -42.5t62.5 -15.5q21 0 46 8t46.5 28t36 54t14.5 86zM494 -207h-88v262h-2q-17 -28 -51.5 -49t-87.5 -21q-67 0 -111 28t-70.5 71
t-37.5 94.5t-11 98.5q0 55 14.5 102.5t42.5 83t68.5 55.5t92.5 20q36 0 61.5 -9.5t44 -23.5t30.5 -29.5t20 -26.5h2v74h83v-730z" />
    <glyph glyph-name="r" unicode="r" horiz-adv-x="333" 
d="M165 0h-88v523h83v-87h2q26 46 61.5 74t85.5 28q8 0 13 -0.5t10 -2.5v-91h-33q-31 0 -55.5 -11t-42 -30.5t-27 -45t-9.5 -53.5v-304z" />
    <glyph glyph-name="s" unicode="s" horiz-adv-x="500" 
d="M362 374q0 12 -4 27.5t-17 29t-37 22.5t-66 9q-10 0 -27.5 -2.5t-34.5 -10t-29.5 -22.5t-12.5 -39q0 -16 5.5 -26.5t16.5 -18t29 -13.5t44 -12l88 -22q82 -20 114.5 -52.5t32.5 -85.5q0 -41 -16 -73t-43.5 -54t-65.5 -34t-82 -12q-52 0 -88.5 9t-61 24.5t-39.5 34.5
t-22.5 39.5t-10 40t-3.5 35.5h85q1 -15 5.5 -34t18.5 -35t41 -27t74 -11q24 0 45.5 5t38 15t26.5 25.5t10 37.5q0 31 -24 46t-80 29l-102 25q-55 14 -88 43.5t-33 83.5q0 43 16.5 74.5t44 52t63 30.5t74.5 10q70 0 110 -22t60 -50.5t25 -55t5 -36.5h-85z" />
    <glyph glyph-name="t" unicode="t" horiz-adv-x="278" 
d="M173 450v-340q0 -15 5.5 -23.5t14 -12.5t17.5 -4.5t16 -0.5h31v-69q-24 -2 -41.5 -4.5t-24.5 -2.5q-33 0 -53.5 8.5t-32 23.5t-16 35.5t-4.5 44.5v345h-71v73h71v146h88v-146h84v-73h-84z" />
    <glyph glyph-name="u" unicode="u" 
d="M406 0v76l-2 2q-28 -46 -65.5 -69.5t-100.5 -23.5q-29 0 -59 7.5t-55 26.5t-40.5 50t-15.5 78v376h88v-347q0 -32 8 -54t21.5 -35.5t32 -19.5t39.5 -6q42 0 69.5 16.5t44 42t23.5 56t7 59.5v288h88v-523h-83z" />
    <glyph glyph-name="v" unicode="v" horiz-adv-x="500" 
d="M396 523h96l-199 -523h-94l-191 523h102l136 -426h2z" />
    <glyph glyph-name="w" unicode="w" horiz-adv-x="722" 
d="M256 0h-91l-151 523h96l100 -411h2l101 411h98l102 -411h2l106 411h88l-152 -523h-91l-106 405h-2z" />
    <glyph glyph-name="x" unicode="x" horiz-adv-x="500" 
d="M490 0h-112l-130 197l-126 -197h-111l184 269l-175 254h113l121 -184l121 184h108l-177 -254z" />
    <glyph glyph-name="y" unicode="y" horiz-adv-x="500" 
d="M392 523h97q-46 -129 -91.5 -256.5t-96.5 -256.5q-31 -80 -51 -124.5t-40 -67t-46 -27.5t-68 -5q-10 0 -18 2.5t-19 5.5v80q8 -3 21.5 -6t31.5 -3q17 0 28 3.5t20 16.5t19 36.5t26 64.5l-194 537h100l139 -426h2z" />
    <glyph glyph-name="z" unicode="z" horiz-adv-x="500" 
d="M148 73h321v-73h-438v69l315 381h-291v73h405v-72z" />
    <glyph glyph-name="braceleft" unicode="{" horiz-adv-x="334" 
d="M42 294q35 0 58 36t23 91v172q0 31 9 55t23 40.5t32.5 25t37.5 8.5h67v-65h-44q-26 0 -36 -24t-10 -58v-170q-2 -37 -13.5 -62.5t-25.5 -42t-28 -25t-21 -10.5v-2q7 -2 21 -10t28 -24.5t25.5 -43t13.5 -65.5v-169q0 -33 10 -57.5t36 -24.5h44v-65h-67q-19 0 -37.5 8.5
t-32.5 25t-23 40.5t-9 55v171q0 57 -23 93.5t-58 36.5v60z" />
    <glyph glyph-name="bar" unicode="|" horiz-adv-x="260" 
d="M167 775v-1000h-73v1000h73z" />
    <glyph glyph-name="braceright" unicode="}" horiz-adv-x="334" 
d="M292 234q-35 0 -58 -36.5t-23 -93.5v-171q0 -31 -9 -55t-23 -40.5t-32.5 -25t-37.5 -8.5h-67v65h44q26 0 36 24.5t10 57.5v169q2 39 13.5 65.5t25.5 43t27.5 24.5t21.5 10v2q-8 2 -21.5 10.5t-27.5 25t-25.5 42t-13.5 62.5v170q0 34 -10 58t-36 24h-44v65h67
q19 0 37.5 -8.5t32.5 -25t23 -40.5t9 -55v-172q0 -55 23 -91t58 -36v-60z" />
    <glyph glyph-name="asciitilde" unicode="~" horiz-adv-x="584" 
d="M523 270q-23 -36 -53.5 -61t-71.5 -25q-28 0 -52.5 9.5t-49.5 23.5q-24 14 -52 24.5t-63 10.5q-17 0 -29.5 -6.5t-23 -16.5t-18 -23t-13.5 -26l-36 56q8 16 19.5 31.5t26.5 27.5t34.5 19.5t44.5 7.5q26 0 54 -9.5t57 -22.5q38 -17 63.5 -26.5t38.5 -9.5q15 0 27.5 6.5
t23 16.5t19.5 23l18 26z" />
    <glyph glyph-name="Euro" 
d="M509 534q-19 37 -58 63.5t-103 26.5q-39 0 -66.5 -16t-46.5 -41.5t-28.5 -57.5t-12.5 -65h285l-24 -72h-264v-71h239l-24 -72h-209q3 -38 15.5 -69.5t32 -53.5t44.5 -34t54 -12q28 0 55 7.5t49.5 18.5t39 23t22.5 22v-99q-3 -3 -16.5 -11t-34.5 -17t-48.5 -16t-59.5 -7
q-106 0 -168.5 63t-78.5 185h-79l25 72h48v71h-72l25 72h51q12 123 75 191t178 68q66 0 115 -22t72 -53z" />
    <glyph glyph-name="Euro" unicode="&#x20ac;" 
d="M509 534q-19 37 -58 63.5t-103 26.5q-39 0 -66.5 -16t-46.5 -41.5t-28.5 -57.5t-12.5 -65h285l-24 -72h-264v-71h239l-24 -72h-209q3 -38 15.5 -69.5t32 -53.5t44.5 -34t54 -12q28 0 55 7.5t49.5 18.5t39 23t22.5 22v-99q-3 -3 -16.5 -11t-34.5 -17t-48.5 -16t-59.5 -7
q-106 0 -168.5 63t-78.5 185h-79l25 72h48v71h-72l25 72h51q12 123 75 191t178 68q66 0 115 -22t72 -53z" />
    <glyph glyph-name="quotesinglbase" unicode="&#x201a;" horiz-adv-x="222" 
d="M53 106h104v-98q0 -29 -5 -54.5t-17 -46t-32 -35t-50 -21.5v47q19 3 30 14.5t16 26.5t6 31.5t1 29.5h-53v106z" />
    <glyph glyph-name="florin" unicode="&#x192;" 
d="M486 644q-17 7 -30 12t-27 5q-20 0 -34 -10t-23.5 -24.5t-15 -31.5t-8.5 -31l-20 -103h114v-70h-127l-60 -327q-14 -76 -34 -128t-46 -83.5t-57 -45.5t-67 -14q-26 0 -38.5 3.5t-23.5 8.5l15 81q11 -5 23 -9.5t28 -4.5q25 0 41.5 12t28 34.5t19 54.5t15.5 73l64 345h-109
v70h123l28 124q6 27 19 54t33 48.5t46.5 35.5t59.5 14q31 0 46.5 -4.5t31.5 -10.5z" />
    <glyph glyph-name="quotedblbase" unicode="&#x201e;" horiz-adv-x="333" 
d="M191 106h104v-98q0 -29 -5 -54.5t-17 -46t-32 -35t-50 -21.5v47q19 3 30 14.5t16 26.5t6 31.5t1 29.5h-53v106zM26 106h104v-98q0 -29 -5 -54.5t-17 -46t-32 -35t-50 -21.5v47q19 3 30 14.5t16 26.5t6 31.5t1 29.5h-53v106z" />
    <glyph glyph-name="ellipsis" unicode="&#x2026;" horiz-adv-x="1000" 
d="M885 0h-104v106h104v-106zM552 0h-104v106h104v-106zM219 0h-104v106h104v-106z" />
    <glyph glyph-name="dagger" unicode="&#x2020;" 
d="M326 -159h-94v590h-189v76h189v211h94v-211h188v-76h-188v-590z" />
    <glyph glyph-name="daggerdbl" unicode="&#x2021;" 
d="M326 119h188v-76h-188v-202h-94v202h-189v76h189v320h-189v76h189v203h94v-203h188v-76h-188v-320z" />
    <glyph glyph-name="circumflex" unicode="&#x2c6;" horiz-adv-x="333" 
d="M100 593h-79l99 141h93l99 -141h-80l-66 93z" />
    <glyph glyph-name="perthousand" unicode="&#x2030;" horiz-adv-x="1000" 
d="M147 -19h-55l397 722h55zM745 149q0 -19 7 -36t19.5 -29.5t29.5 -20t37 -7.5q19 0 36 7.5t29.5 20t20 29.5t7.5 36t-7.5 36t-20 30t-29.5 20t-36 7q-40 0 -66.5 -27.5t-26.5 -65.5zM682 149q0 33 12.5 61.5t33.5 49.5t49.5 33t60.5 12t60.5 -12.5t49.5 -33.5t33.5 -49.5
t12.5 -60.5t-12 -60.5t-33 -49.5t-49.5 -33.5t-61.5 -12.5q-32 0 -60.5 12t-49.5 33t-33.5 49.5t-12.5 61.5zM382 149q0 -19 7 -36t19.5 -29.5t29.5 -20t37 -7.5q19 0 36 7.5t29.5 20t20 29.5t7.5 36t-7.5 36t-20 30t-29.5 20t-36 7q-40 0 -66.5 -27.5t-26.5 -65.5zM319 149
q0 33 12.5 61.5t33.5 49.5t49.5 33t60.5 12t60.5 -12.5t49.5 -33.5t33.5 -49.5t12.5 -60.5t-12 -60.5t-33 -49.5t-49.5 -33.5t-61.5 -12.5q-32 0 -60.5 12t-49.5 33t-33.5 49.5t-12.5 61.5zM70 539q0 -19 7 -36t19.5 -29.5t29.5 -20t37 -7.5q19 0 36 7.5t29.5 20t20 29.5
t7.5 36t-7.5 36t-20 30t-29.5 20t-36 7q-40 0 -66.5 -27.5t-26.5 -65.5zM7 539q0 33 12.5 61.5t33.5 49.5t49.5 33t60.5 12t60.5 -12.5t49.5 -33.5t33.5 -49.5t12.5 -60.5t-12 -60.5t-33 -49.5t-49.5 -33.5t-61.5 -12.5q-32 0 -60.5 12t-49.5 33t-33.5 49.5t-12.5 61.5z" />
    <glyph glyph-name="Scaron" unicode="&#x160;" horiz-adv-x="667" 
d="M333 836l66 93h80l-99 -141h-93l-99 141h79zM509 508q-2 42 -18.5 70t-42 45t-56.5 24t-61 7q-23 0 -51.5 -4.5t-53.5 -18t-42 -38t-17 -65.5q0 -23 7.5 -38.5t19.5 -26t27 -16.5t31 -10l205 -47q35 -8 65 -23t51.5 -38.5t34 -55.5t12.5 -75q0 -64 -26.5 -106t-68 -66.5
t-91 -34.5t-95.5 -10q-50 0 -85.5 6.5t-61 17t-42 22.5t-28.5 23q-46 42 -59.5 86.5t-13.5 95.5h91q0 -49 18 -81t46.5 -51.5t63.5 -27.5t70 -8q26 0 59 4.5t61.5 17.5t48 36.5t19.5 62.5q0 28 -7.5 47.5t-25 33.5t-47 24.5t-73.5 21.5l-147 34q-18 4 -44 13.5t-50 28.5
t-41.5 49.5t-17.5 77.5q0 42 14 82t44 71t77 50t112 19q94 0 149 -24.5t83.5 -60t37 -75t10.5 -69.5h-91z" />
    <glyph glyph-name="guilsinglleft" unicode="&#x2039;" horiz-adv-x="333" 
d="M245 108l-157 123v92l157 123v-88l-105 -81l105 -81v-88z" />
    <glyph glyph-name="OE" unicode="&#x152;" horiz-adv-x="1000" 
d="M523 718h440v-86h-349v-220h333v-86h-333v-240h351v-86h-443v75h-2q-12 -16 -26.5 -33t-36 -30.5t-52.5 -22t-76 -8.5q-71 0 -125.5 28t-92 78t-56.5 118.5t-19 149.5q0 35 5.5 77t18.5 84.5t35.5 82t56.5 70.5t81 49.5t110 18.5q45 0 76 -11t52 -26t32.5 -30.5
t17.5 -24.5h2v73zM517 492q0 37 -13 67t-36 51t-54.5 32.5t-69.5 11.5q-48 0 -82.5 -16.5t-57.5 -43.5t-36.5 -61t-20.5 -69t-9 -68t-2 -57q0 -87 25 -150q13 -31 29.5 -54.5t39.5 -39t54 -23.5t73 -8q24 0 52 9t52 28.5t40 51.5t16 77v262z" />
    <glyph glyph-name="Zcaron" horiz-adv-x="611" 
d="M305 836l66 93h80l-99 -141h-93l-99 141h79zM588 0h-565v81l440 551h-407v86h532v-84l-442 -548h442v-86z" />
    <glyph glyph-name="Zcaron" unicode="&#x17d;" horiz-adv-x="611" 
d="M305 836l66 93h80l-99 -141h-93l-99 141h79zM588 0h-565v81l440 551h-407v86h532v-84l-442 -548h442v-86z" />
    <glyph glyph-name="quoteleft" unicode="&#x2018;" horiz-adv-x="222" 
d="M169 470h-104v98q0 29 5 54.5t17 46t32 35t50 21.5v-47q-20 -3 -30.5 -14.5t-15.5 -26.5t-6 -31.5t-1 -29.5h53v-106z" />
    <glyph glyph-name="quoteright" unicode="&#x2019;" horiz-adv-x="222" 
d="M53 718h104v-98q0 -29 -5 -54.5t-17 -46t-32 -35t-50 -21.5v47q19 3 30 14.5t16 26.5t6 31.5t1 29.5h-53v106z" />
    <glyph glyph-name="quotedblleft" unicode="&#x201c;" horiz-adv-x="333" 
d="M142 470h-104v98q0 29 5 54.5t17 46t32 35t50 21.5v-47q-20 -3 -30.5 -14.5t-15.5 -26.5t-6 -31.5t-1 -29.5h53v-106zM307 470h-104v98q0 29 5 54.5t17 46t32 35t50 21.5v-47q-20 -3 -30.5 -14.5t-15.5 -26.5t-6 -31.5t-1 -29.5h53v-106z" />
    <glyph glyph-name="quotedblright" unicode="&#x201d;" horiz-adv-x="333" 
d="M191 718h104v-98q0 -29 -5 -54.5t-17 -46t-32 -35t-50 -21.5v47q19 3 30 14.5t16 26.5t6 31.5t1 29.5h-53v106zM26 718h104v-98q0 -29 -5 -54.5t-17 -46t-32 -35t-50 -21.5v47q19 3 30 14.5t16 26.5t6 31.5t1 29.5h-53v106z" />
    <glyph glyph-name="bullet" unicode="&#x2022;" horiz-adv-x="350" 
d="M333 359q0 -33 -12.5 -61.5t-34 -49.5t-50 -33.5t-61.5 -12.5t-61.5 12t-49.5 33.5t-33.5 50t-12.5 61.5t12 61.5t33.5 50t50 34t61.5 12.5t61.5 -12.5t50 -34t34 -50t12.5 -61.5z" />
    <glyph glyph-name="endash" unicode="&#x2013;" 
d="M556 240h-556v73h556v-73z" />
    <glyph glyph-name="emdash" unicode="&#x2014;" horiz-adv-x="1000" 
d="M1000 240h-1000v73h1000v-73z" />
    <glyph glyph-name="tilde" unicode="&#x2dc;" horiz-adv-x="333" 
d="M337 722q-5 -45 -31 -77t-69 -32q-14 0 -26.5 3t-32.5 10l-26 9q-26 9 -39 12t-22 3q-20 0 -30.5 -12t-16.5 -32h-48q3 22 10 41.5t19.5 34t31 23t43.5 8.5q20 0 36 -4.5t32 -10.5l22 -9q14 -6 27.5 -9.5t19.5 -3.5q15 0 24 4.5t14.5 11.5t7.5 15t4 15h50z" />
    <glyph glyph-name="trademark" unicode="&#x2122;" horiz-adv-x="1000" 
d="M373 658h-127v-352h-73v352h-127v60h327v-60zM675 415l116 303h112v-412h-73v335h-2l-129 -335h-50l-129 335h-2v-335h-73v412h112z" />
    <glyph glyph-name="scaron" unicode="&#x161;" horiz-adv-x="500" 
d="M250 641l66 93h80l-99 -141h-93l-99 141h79zM362 374q0 12 -4 27.5t-17 29t-37 22.5t-66 9q-10 0 -27.5 -2.5t-34.5 -10t-29.5 -22.5t-12.5 -39q0 -16 5.5 -26.5t16.5 -18t29 -13.5t44 -12l88 -22q82 -20 114.5 -52.5t32.5 -85.5q0 -41 -16 -73t-43.5 -54t-65.5 -34
t-82 -12q-52 0 -88.5 9t-61 24.5t-39.5 34.5t-22.5 39.5t-10 40t-3.5 35.5h85q1 -15 5.5 -34t18.5 -35t41 -27t74 -11q24 0 45.5 5t38 15t26.5 25.5t10 37.5q0 31 -24 46t-80 29l-102 25q-55 14 -88 43.5t-33 83.5q0 43 16.5 74.5t44 52t63 30.5t74.5 10q70 0 110 -22
t60 -50.5t25 -55t5 -36.5h-85z" />
    <glyph glyph-name="guilsinglright" unicode="&#x203a;" horiz-adv-x="333" 
d="M88 196l105 81l-105 81v88l157 -123v-92l-157 -123v88z" />
    <glyph glyph-name="oe" unicode="&#x153;" horiz-adv-x="944" 
d="M126 262q0 -26 6 -60.5t22.5 -65.5t46.5 -52.5t77 -21.5t77 21.5t46.5 52.5t22.5 65.5t6 60.5t-6 60.5t-22.5 65.5t-46.5 52.5t-77 21.5t-77 -21.5t-46.5 -52.5t-22.5 -65.5t-6 -60.5zM895 164q-1 -9 -6.5 -26.5t-16.5 -38t-28 -41.5t-42 -37q-9 -6 -20.5 -12.5
t-28 -11.5t-39.5 -8.5t-54 -3.5q-56 0 -106.5 23.5t-87.5 77.5q-17 -33 -41.5 -53t-50.5 -30.5t-50 -13.5t-40 -3h-6q-63 0 -108.5 24t-75.5 63t-44.5 88.5t-14.5 100.5t14.5 100.5t44.5 88.5t75.5 63t108.5 24q63 -1 113.5 -26.5t82.5 -79.5q37 57 85.5 81.5t117.5 24.5
q57 0 99 -21.5t70 -61.5t42 -96.5t14 -125.5h-383q0 -82 38.5 -127t114.5 -45q31 0 55.5 10.5t42 26.5t27 33.5t10.5 32.5h88zM811 303q-2 30 -10 58.5t-25 50t-44 34.5t-67 13q-30 0 -57 -13t-46.5 -34.5t-31 -50t-11.5 -58.5h292z" />
    <glyph glyph-name="zcaron" horiz-adv-x="500" 
d="M250 641l66 93h80l-99 -141h-93l-99 141h79zM148 73h321v-73h-438v69l315 381h-291v73h405v-72z" />
    <glyph glyph-name="zcaron" unicode="&#x17e;" horiz-adv-x="500" 
d="M250 641l66 93h80l-99 -141h-93l-99 141h79zM148 73h321v-73h-438v69l315 381h-291v73h405v-72z" />
    <glyph glyph-name="Ydieresis" unicode="&#x178;" horiz-adv-x="667" 
d="M460 799h-91v102h91v-102zM298 799h-91v102h91v-102zM382 0h-97v289l-271 429h113l206 -345l206 345h114l-271 -429v-289z" />
    <glyph glyph-name="exclamdown" unicode="&#xa1;" horiz-adv-x="333" 
d="M191 352l24 -310v-237h-97v237l24 310h49zM118 523h97v-102h-97v102z" />
    <glyph glyph-name="cent" unicode="&#xa2;" 
d="M427 345q-3 12 -7.5 27t-12 29.5t-19 26.5t-29.5 19l-110 -386q8 -2 14.5 -3t20.5 -1q23 0 45 5t41 18.5t34 38.5t24 64h85q-3 -27 -16 -62t-39 -66t-68 -52.5t-103 -21.5q-12 0 -26.5 2t-33.5 5l-31 -103h-41l34 114q-29 14 -54 36t-44 52.5t-29.5 70t-10.5 87.5
q0 142 64.5 217.5t181.5 75.5q28 0 43 -6l26 91h39l-25 -100q13 -4 33.5 -15t40 -32t35 -53t20.5 -78h-82zM320 459q-6 2 -12 2.5t-17 0.5q-32 0 -59.5 -12.5t-48 -39t-32.5 -67.5t-12 -98q0 -27 5.5 -52.5t15 -47.5t23 -39.5t29.5 -27.5z" />
    <glyph glyph-name="sterling" unicode="&#xa3;" 
d="M102 380q-14 28 -28.5 62t-14.5 72q0 31 11.5 67t39.5 66.5t76 50.5t120 20q57 0 97.5 -18.5t66.5 -49t38.5 -68.5t12.5 -77v-15h-88v9q0 31 -10 57.5t-28 45.5t-43 29.5t-56 10.5q-41 0 -68.5 -13.5t-44 -33t-23.5 -40.5t-7 -36q0 -29 13 -61.5t38 -77.5h167v-63h-138
q4 -14 6.5 -29.5t2.5 -36.5q0 -43 -28.5 -93t-90.5 -92v-1q28 16 61 26.5t70 10.5q23 0 46.5 -5.5t45 -12t41 -12t35.5 -5.5q20 0 42.5 10t33.5 21l41 -66q-32 -24 -61.5 -36t-65.5 -12q-23 0 -48 7t-51.5 15.5t-54 15.5t-55.5 7q-29 0 -59 -11.5t-58 -28.5l-49 69
q39 26 63 53.5t37 53t17.5 46.5t4.5 34q0 19 -7 39.5t-12 32.5h-107v63h69z" />
    <glyph glyph-name="currency" unicode="&#xa4;" 
d="M106 351q0 -36 13.5 -68.5t36.5 -57t54.5 -39t67.5 -14.5t67.5 14.5t54.5 39t36.5 57t13.5 68.5q0 35 -13.5 67t-37 56.5t-54.5 39t-67 14.5t-67 -14.5t-54.5 -39t-37 -56.5t-13.5 -67zM528 555l-55 -54q26 -29 38 -68.5t12 -81.5t-12 -80.5t-38 -70.5l54 -56l-45 -45
l-55 58q-30 -28 -69 -41.5t-80 -13.5t-80 13.5t-69 41.5l-55 -58l-45 45l54 56q-26 32 -38 70.5t-12 80.5t12 81.5t38 68.5l-55 54l48 48l57 -56q29 25 67 38t78 13t78 -13t67 -38l57 56z" />
    <glyph glyph-name="yen" unicode="&#xa5;" 
d="M42 384h154l-193 304h100l175 -295l175 295h100l-193 -304h155v-57h-193v-85h193v-57h-193v-185h-88v185h-192v57h192v85h-192v57z" />
    <glyph glyph-name="brokenbar" unicode="&#xa6;" horiz-adv-x="260" 
d="M94 700h73v-350h-73v350zM94 200h73v-350h-73v350z" />
    <glyph glyph-name="section" unicode="&#xa7;" 
d="M193 428q-29 -15 -48 -38.5t-19 -58.5q0 -20 5 -34.5t12.5 -25t15 -16.5t12.5 -9l189 -122q29 19 49 41t20 60q0 33 -18 56.5t-44 39.5zM375 554q-1 12 -3.5 30t-12 35.5t-29 29.5t-54.5 12q-15 0 -31 -4t-29.5 -14t-22.5 -25.5t-9 -37.5q0 -28 19.5 -49t53.5 -41
l146 -86q23 -14 43 -29t34.5 -34t23 -42.5t8.5 -54.5q0 -32 -9 -56t-23.5 -43.5t-33 -34t-37.5 -26.5q23 -25 37.5 -50.5t14.5 -63.5q0 -39 -16.5 -69t-42.5 -50.5t-58 -31t-64 -10.5q-42 0 -78 10.5t-62.5 33.5t-41.5 58.5t-15 85.5h88q0 -12 2.5 -31t12 -37t29 -31
t53.5 -13q14 0 32 3t34.5 11.5t27.5 25t11 43.5q0 26 -14.5 44t-40.5 35l-210 140q-20 13 -33 30t-20 33.5t-9.5 32t-2.5 26.5q0 32 7.5 56t21 42.5t31.5 32.5t40 27q-26 28 -36.5 49.5t-10.5 50.5q0 28 9.5 58t31 55t56 41t83.5 16q30 0 62.5 -8t59.5 -28t44.5 -56
t17.5 -91h-85z" />
    <glyph glyph-name="dieresis" unicode="&#xa8;" horiz-adv-x="333" 
d="M293 604h-91v102h91v-102zM131 604h-91v102h91v-102z" />
    <glyph glyph-name="copyright" unicode="&#xa9;" horiz-adv-x="737" 
d="M569 289q-7 -37 -24 -67t-41.5 -51t-55.5 -32t-65 -11q-51 0 -92 18t-70.5 49.5t-45 74t-15.5 91.5q0 50 15 92.5t43.5 73t69 48t91.5 17.5q36 0 68 -10t57 -30t42 -49.5t22 -67.5h-67q-9 42 -41 66.5t-80 24.5q-35 0 -62 -12.5t-45 -34.5t-27.5 -52t-9.5 -65
q0 -34 10 -64.5t29 -53.5t46.5 -36.5t61.5 -13.5q48 0 79.5 26.5t38.5 68.5h68zM62 360q0 -68 24 -126t65.5 -100t97.5 -66t121 -24q64 0 120 24t97 66t65 100t24 126q0 67 -24 124.5t-65 99.5t-97 66t-120 24q-65 0 -121 -24t-97.5 -66t-65.5 -99.5t-24 -124.5zM370 -19
q-78 0 -148 28.5t-122.5 79t-83 120t-30.5 151.5q0 81 30.5 150.5t83 119.5t122.5 78.5t148 28.5q77 0 146.5 -28.5t122 -78.5t83 -119.5t30.5 -150.5q0 -82 -30.5 -151.5t-83 -120t-122 -79t-146.5 -28.5z" />
    <glyph glyph-name="ordfeminine" unicode="&#xaa;" horiz-adv-x="370" 
d="M145 457q20 0 38.5 5.5t33 15t23 22.5t8.5 28v42q-2 -2 -7 -4.5t-15 -4.5t-26.5 -5t-43.5 -6q-11 -1 -23 -3.5t-22 -7t-17 -12.5t-7 -20q0 -23 13 -36.5t45 -13.5zM346 410q-8 -2 -15 -3.5t-17 -1.5q-19 0 -30.5 4t-17.5 11t-8.5 16t-3.5 20q-17 -17 -45.5 -34t-77.5 -17
q-47 0 -77 25t-30 66q0 11 3 27t14.5 31t33.5 27t61 17l88 10q9 2 16.5 8.5t7.5 29.5q0 16 -17.5 27.5t-58.5 11.5q-26 0 -41 -6t-22.5 -14.5t-10 -17.5t-3.5 -15h-54q2 57 40 81t101 24q10 0 31 -2.5t42.5 -11.5t37.5 -26.5t16 -47.5v-178q0 -19 18 -19q4 0 9 0.5t10 1.5
v-44z" />
    <glyph glyph-name="guillemotleft" unicode="&#xab;" 
d="M459 108l-157 123v92l157 123v-88l-105 -81l105 -81v-88zM254 108l-157 123v92l157 123v-88l-105 -81l105 -81v-88z" />
    <glyph glyph-name="logicalnot" unicode="&#xac;" horiz-adv-x="584" 
d="M472 317h-433v73h506v-282h-73v209z" />
    <glyph glyph-name="registered" unicode="&#xae;" horiz-adv-x="737" 
d="M369 386q21 0 40 1.5t34 8.5t23.5 21.5t8.5 39.5q0 20 -8.5 32.5t-22 19.5t-30.5 9.5t-34 2.5h-90v-135h79zM290 141h-66v436h166q78 0 116 -29.5t38 -94.5q0 -29 -8.5 -50.5t-24 -36t-36 -22.5t-44.5 -11l124 -192h-74l-115 189h-76v-189zM62 360q0 -68 24 -126
t65.5 -100t97.5 -66t121 -24q64 0 120 24t97 66t65 100t24 126q0 67 -24 124.5t-65 99.5t-97 66t-120 24q-65 0 -121 -24t-97.5 -66t-65.5 -99.5t-24 -124.5zM370 -19q-78 0 -148 28.5t-122.5 79t-83 120t-30.5 151.5q0 81 30.5 150.5t83 119.5t122.5 78.5t148 28.5
q77 0 146.5 -28.5t122 -78.5t83 -119.5t30.5 -150.5q0 -82 -30.5 -151.5t-83 -120t-122 -79t-146.5 -28.5z" />
    <glyph glyph-name="macron" unicode="&#xaf;" horiz-adv-x="333" 
d="M323 627h-313v57h313v-57z" />
    <glyph glyph-name="macron" unicode="&#x2c9;" horiz-adv-x="333" 
d="M323 627h-313v57h313v-57z" />
    <glyph glyph-name="degree" unicode="&#xb0;" horiz-adv-x="400" 
d="M346 557q0 -31 -11 -58t-30.5 -46.5t-46.5 -30.5t-58 -11t-58 11t-46.5 30.5t-30.5 46.5t-11 58t11 58t30.5 46.5t46.5 30.5t58 11t58 -11t46.5 -30.5t30.5 -46.5t11 -58zM200 660q-20 0 -37.5 -8.5t-31 -23t-21.5 -33t-8 -38.5t8 -38.5t21.5 -33t31 -23t37.5 -8.5
t37.5 8.5t31 23t21.5 33t8 38.5t-8 38.5t-21.5 33t-31 23t-37.5 8.5z" />
    <glyph glyph-name="plusminus" unicode="&#xb1;" horiz-adv-x="584" 
d="M39 73h506v-73h-506v73zM256 506h73v-161h216v-73h-216v-161h-73v161h-217v73h217v161z" />
    <glyph glyph-name="twosuperior" unicode="&#xb2;" horiz-adv-x="333" 
d="M19 552q0 51 18 81t43 45.5t52 20t45 4.5q31 0 57.5 -8.5t46 -25t31 -40t11.5 -52.5t-9.5 -50t-25.5 -37.5t-37.5 -29.5t-46.5 -25l-45 -23q-35 -19 -52 -36t-28 -34h244v-61h-319q3 66 31.5 104.5t72.5 62.5l60 33q19 10 35 19t27 19.5t17 24.5t6 35v6q0 21 -18.5 40.5
t-65.5 19.5q-32 0 -49.5 -11t-26.5 -26t-11 -31t-3 -25h-60z" />
    <glyph glyph-name="threesuperior" unicode="&#xb3;" horiz-adv-x="333" 
d="M73 410q1 -13 4 -27.5t12 -26.5t25.5 -20t44.5 -8q44 0 70 17t26 54q0 27 -10.5 41.5t-26.5 21t-33.5 8t-32.5 1.5h-23v51h27q33 0 57.5 13.5t24.5 53.5q0 8 -3 17.5t-11.5 18t-24 14.5t-41.5 6q-25 0 -40.5 -7.5t-24.5 -19.5t-12 -26t-4 -27h-61q0 23 6.5 47.5t24 44.5
t46.5 33t74 13q66 0 103.5 -31.5t37.5 -79.5q0 -20 -5.5 -35.5t-14.5 -26t-19.5 -16.5t-19.5 -9v-2q34 -9 55 -32t21 -65q0 -26 -9.5 -50.5t-29.5 -43.5t-51.5 -30.5t-76.5 -11.5q-26 0 -46.5 5.5t-37.5 13.5q-38 18 -52 51.5t-17 69.5h68z" />
    <glyph glyph-name="acute" unicode="&#xb4;" horiz-adv-x="333" 
d="M189 593h-67l89 141h108z" />
    <glyph glyph-name="mu" unicode="&#xb5;" horiz-adv-x="578" 
d="M559 -3l-18.5 -2t-38.5 -2q-46 0 -67.5 18.5t-29.5 67.5q-16 -39 -47.5 -66t-91.5 -27q-40 0 -68.5 19.5t-41.5 42.5v-255h-88v730h88v-341q0 -32 10 -55t26 -37.5t37 -21t42 -6.5q71 0 101 46t30 126v289h88v-382q0 -32 6.5 -49.5t31.5 -17.5q11 0 21 1.5l10 1.5v-80z
" />
    <glyph glyph-name="mu" unicode="&#x3bc;" horiz-adv-x="578" 
d="M559 -3l-18.5 -2t-38.5 -2q-46 0 -67.5 18.5t-29.5 67.5q-16 -39 -47.5 -66t-91.5 -27q-40 0 -68.5 19.5t-41.5 42.5v-255h-88v730h88v-341q0 -32 10 -55t26 -37.5t37 -21t42 -6.5q71 0 101 46t30 126v289h88v-382q0 -32 6.5 -49.5t31.5 -17.5q11 0 21 1.5l10 1.5v-80z
" />
    <glyph glyph-name="paragraph" unicode="&#xb6;" horiz-adv-x="537" 
d="M232 344q-48 0 -87.5 14t-67.5 39t-43.5 58.5t-15.5 72.5q0 99 63 144.5t168 45.5h248v-891h-73v831h-119v-831h-73v517z" />
    <glyph glyph-name="periodcentered" unicode="&#xb7;" horiz-adv-x="278" 
d="M140 315q23 0 42.5 -18t19.5 -45q0 -24 -18 -43t-45 -19q-26 0 -44 18.5t-18 43.5q0 28 19 45.5t44 17.5z" />
    <glyph glyph-name="periodcentered" unicode="&#x2219;" horiz-adv-x="278" 
d="M140 315q23 0 42.5 -18t19.5 -45q0 -24 -18 -43t-45 -19q-26 0 -44 18.5t-18 43.5q0 28 19 45.5t44 17.5z" />
    <glyph glyph-name="cedilla" unicode="&#xb8;" horiz-adv-x="333" 
d="M143 0h47l-46 -62q8 2 14.5 3t16.5 1q24 0 40.5 -7t26 -18.5t13.5 -24.5t4 -25q0 -39 -31 -65.5t-87 -26.5q-28 0 -52 7t-44 15l17 40q19 -8 32.5 -11.5t32.5 -3.5q7 0 16.5 1.5t18.5 6t15 12.5t6 22q0 12 -5.5 19.5t-13 12t-16 6t-13.5 1.5q-7 0 -15 -1.5t-24 -6.5
l-17 19z" />
    <glyph glyph-name="onesuperior" unicode="&#xb9;" horiz-adv-x="333" 
d="M43 577v46q28 2 48 5t34.5 11t24 23t16.5 41h56v-422h-71v296h-108z" />
    <glyph glyph-name="ordmasculine" unicode="&#xba;" horiz-adv-x="365" 
d="M274 571q0 15 -3 35t-13 37.5t-27.5 29.5t-47.5 12t-47.5 -12t-27.5 -29.5t-13 -37.5t-3 -35t3 -35t13 -37.5t27.5 -29.5t47.5 -12t47.5 12t27.5 29.5t13 37.5t3 35zM341 571q0 -49 -14.5 -81t-37 -51t-50.5 -26.5t-56 -7.5t-56 7.5t-50.5 26.5t-37 51t-14.5 81t14.5 81
t37 51t50.5 26.5t56 7.5t56 -7.5t50.5 -26.5t37 -51t14.5 -81z" />
    <glyph glyph-name="guillemotright" unicode="&#xbb;" 
d="M302 108v88l105 81l-105 81v88l157 -123v-92zM97 108v88l105 81l-105 81v88l157 -123v-92z" />
    <glyph glyph-name="onequarter" unicode="&#xbc;" horiz-adv-x="834" 
d="M73 580v43q28 2 48 5t34.5 11t24 23t16.5 41h53v-422h-68v299h-108zM211 -19h-57l442 722h57zM625 339h-2l-142 -187h144v187zM419 154l206 268h64v-270h67v-58h-67v-94h-64v94h-206v60z" />
    <glyph glyph-name="onehalf" unicode="&#xbd;" horiz-adv-x="834" 
d="M469 271q0 51 18 81t43 45.5t52 20t45 4.5q31 0 57.5 -8.5t46 -25t31 -40t11.5 -52.5t-9.5 -50t-25.5 -37.5t-37.5 -29.5t-46.5 -25l-45 -23q-35 -19 -52 -36t-28 -34h244v-61h-319q3 66 31.5 104.5t72.5 62.5l60 33q19 10 35 19t27 19.5t17 24.5t6 35v6q0 21 -18.5 40.5
t-65.5 19.5q-32 0 -49.5 -11t-26.5 -26t-11 -31t-3 -25h-60zM43 577v46q28 2 48 5t34.5 11t24 23t16.5 41h56v-422h-71v296h-108zM175 -19h-57l442 722h57z" />
    <glyph glyph-name="threequarters" unicode="&#xbe;" horiz-adv-x="834" 
d="M113 410q1 -13 4 -27.5t12 -26.5t25.5 -20t44.5 -8q44 0 70 17t26 54q0 27 -10.5 41.5t-26.5 21t-33.5 8t-32.5 1.5h-23v51h27q33 0 57.5 13.5t24.5 53.5q0 8 -3 17.5t-11.5 18t-24 14.5t-41.5 6q-25 0 -40.5 -7.5t-24.5 -19.5t-12 -26t-4 -27h-61q0 23 6.5 47.5t24 44.5
t46.5 33t74 13q66 0 103.5 -31.5t37.5 -79.5q0 -20 -5.5 -35.5t-14.5 -26t-19.5 -16.5t-19.5 -9v-2q34 -9 55 -32t21 -65q0 -26 -9.5 -50.5t-29.5 -43.5t-51.5 -30.5t-76.5 -11.5q-26 0 -46.5 5.5t-37.5 13.5q-38 18 -52 51.5t-17 69.5h68zM270 -19h-57l442 722h57zM535 152
h144v187h-2zM473 154l206 268h64v-270h67v-58h-67v-94h-64v94h-206v60z" />
    <glyph glyph-name="questiondown" unicode="&#xbf;" horiz-adv-x="611" 
d="M265 525h97v-102h-97v102zM527 33q-1 -26 -3.5 -50.5t-10 -48t-23 -46t-42.5 -43.5q-30 -23 -67.5 -34.5t-77.5 -11.5q-42 0 -80.5 12.5t-67.5 37.5t-46.5 61.5t-17.5 84.5q0 25 5 44.5t16.5 38.5t29 38.5t43.5 43.5q23 22 39.5 39t27 35.5t15.5 41.5t5 57v10h88
q0 -43 -5 -71.5t-16.5 -51.5t-29.5 -44t-44 -48q-25 -26 -40.5 -42.5t-24.5 -31t-12 -29.5t-3 -36q0 -16 5.5 -35.5t19 -37t37 -29.5t59.5 -12q48 0 75 18.5t39.5 44t15.5 52.5t3 43h88z" />
    <glyph glyph-name="Agrave" unicode="&#xc0;" horiz-adv-x="667" 
d="M181 929h108l89 -141h-67zM442 295l-106 316h-2l-115 -316h223zM189 209l-75 -209h-100l270 718h110l260 -718h-106l-71 209h-288z" />
    <glyph glyph-name="Aacute" unicode="&#xc1;" horiz-adv-x="667" 
d="M356 788h-67l89 141h108zM442 295l-106 316h-2l-115 -316h223zM189 209l-75 -209h-100l270 718h110l260 -718h-106l-71 209h-288z" />
    <glyph glyph-name="Acircumflex" unicode="&#xc2;" horiz-adv-x="667" 
d="M267 788h-79l99 141h93l99 -141h-80l-66 93zM442 295l-106 316h-2l-115 -316h223zM189 209l-75 -209h-100l270 718h110l260 -718h-106l-71 209h-288z" />
    <glyph glyph-name="Atilde" unicode="&#xc3;" horiz-adv-x="667" 
d="M504 917q-5 -45 -31 -77t-69 -32q-14 0 -26.5 3t-32.5 10l-26 9q-26 9 -39 12t-22 3q-20 0 -30.5 -12t-16.5 -32h-48q3 22 10 41.5t19.5 34t31 23t43.5 8.5q20 0 36 -4.5t32 -10.5l22 -9q14 -6 27.5 -9.5t19.5 -3.5q15 0 24 4.5t14.5 11.5t7.5 15t4 15h50zM442 295
l-106 316h-2l-115 -316h223zM189 209l-75 -209h-100l270 718h110l260 -718h-106l-71 209h-288z" />
    <glyph glyph-name="Adieresis" unicode="&#xc4;" horiz-adv-x="667" 
d="M460 799h-91v102h91v-102zM298 799h-91v102h91v-102zM442 295l-106 316h-2l-115 -316h223zM189 209l-75 -209h-100l270 718h110l260 -718h-106l-71 209h-288z" />
    <glyph glyph-name="Aring" unicode="&#xc5;" horiz-adv-x="667" 
d="M282 839q0 -22 15 -37t37 -15t37 15t15 37t-15 37t-37 15t-37 -15t-15 -37zM334 931q40 0 66 -26t26 -66t-26 -66t-66 -26t-66 26t-26 66t26 66t66 26zM442 295l-106 316h-2l-115 -316h223zM189 209l-75 -209h-100l270 718h110l260 -718h-106l-71 209h-288z" />
    <glyph glyph-name="AE" unicode="&#xc6;" horiz-adv-x="1000" 
d="M457 632h-97l-133 -337h230v337zM113 0h-105l292 718h644v-86h-390v-220h356v-86h-356v-240h397v-86h-494v209h-265z" />
    <glyph glyph-name="Ccedilla" unicode="&#xc7;" horiz-adv-x="722" 
d="M282 -163q19 -8 32.5 -11.5t32.5 -3.5q7 0 16.5 1.5t18.5 6t15 12.5t6 22q0 12 -5.5 19.5t-13 12t-16 6t-13.5 1.5q-7 0 -15 -1.5t-24 -6.5l-17 19l51 69q-59 2 -114 24t-97.5 67.5t-68.5 117t-26 171.5q0 83 23 151.5t66 118t105.5 77t140.5 27.5q69 0 122 -20
t89.5 -52.5t57.5 -75t26 -87.5h-94q-10 47 -33 76.5t-51.5 45.5t-59.5 21.5t-57 5.5q-49 0 -91.5 -18t-74.5 -53.5t-50.5 -89t-18.5 -124.5q0 -63 12 -118t40 -95t73.5 -63t112.5 -23q24 0 54 7.5t59.5 28.5t54.5 59.5t37 101.5h94q-13 -88 -48 -142t-77.5 -84t-85.5 -41.5
t-73 -13.5l-33 -45q8 2 14.5 3t16.5 1q24 0 40.5 -7t26 -18.5t13.5 -24.5t4 -25q0 -39 -31 -65.5t-87 -26.5q-28 0 -52 7t-44 15z" />
    <glyph glyph-name="Egrave" unicode="&#xc8;" horiz-adv-x="667" 
d="M181 929h108l89 -141h-67zM616 0h-530v718h523v-86h-426v-220h393v-86h-393v-240h433v-86z" />
    <glyph glyph-name="Eacute" unicode="&#xc9;" horiz-adv-x="667" 
d="M356 788h-67l89 141h108zM616 0h-530v718h523v-86h-426v-220h393v-86h-393v-240h433v-86z" />
    <glyph glyph-name="Ecircumflex" unicode="&#xca;" horiz-adv-x="667" 
d="M267 788h-79l99 141h93l99 -141h-80l-66 93zM616 0h-530v718h523v-86h-426v-220h393v-86h-393v-240h433v-86z" />
    <glyph glyph-name="Edieresis" unicode="&#xcb;" horiz-adv-x="667" 
d="M460 799h-91v102h91v-102zM298 799h-91v102h91v-102zM616 0h-530v718h523v-86h-426v-220h393v-86h-393v-240h433v-86z" />
    <glyph glyph-name="Igrave" unicode="&#xcc;" horiz-adv-x="278" 
d="M-13 929h108l89 -141h-67zM188 0h-97v718h97v-718z" />
    <glyph glyph-name="Iacute" unicode="&#xcd;" horiz-adv-x="278" 
d="M162 788h-67l89 141h108zM188 0h-97v718h97v-718z" />
    <glyph glyph-name="Icircumflex" unicode="&#xce;" horiz-adv-x="278" 
d="M73 788h-79l99 141h93l99 -141h-80l-66 93zM188 0h-97v718h97v-718z" />
    <glyph glyph-name="Idieresis" unicode="&#xcf;" horiz-adv-x="278" 
d="M266 799h-91v102h91v-102zM104 799h-91v102h91v-102zM188 0h-97v718h97v-718z" />
    <glyph glyph-name="Eth" unicode="&#xd0;" horiz-adv-x="722" 
d="M0 412h81v306h291q70 0 126 -25.5t95 -71.5t60 -110t21 -142q0 -15 -2.5 -48.5t-12 -74.5t-29 -84.5t-53.5 -79.5t-85 -59t-124 -23h-287v326h-81v86zM370 326h-192v-243h188q95 0 151.5 71.5t56.5 208.5q0 136 -58 204t-157 68h-181v-223h192v-86z" />
    <glyph glyph-name="Ntilde" unicode="&#xd1;" horiz-adv-x="722" 
d="M542 917q-5 -45 -31 -77t-69 -32q-14 0 -26.5 3t-32.5 10l-26 9q-26 9 -39 12t-22 3q-20 0 -30.5 -12t-16.5 -32h-48q3 22 10 41.5t19.5 34t31 23t43.5 8.5q20 0 36 -4.5t32 -10.5l22 -9q14 -6 27.5 -9.5t19.5 -3.5q15 0 24 4.5t14.5 11.5t7.5 15t4 15h50zM552 718h94
v-718h-109l-365 580h-2v-580h-94v718h115l359 -580h2v580z" />
    <glyph glyph-name="Ograve" unicode="&#xd2;" horiz-adv-x="778" 
d="M237 929h108l89 -141h-67zM739 359q0 -39 -7.5 -82t-24 -85t-43 -80t-65.5 -67.5t-91 -46.5t-119 -17t-119 17t-91 46.5t-65.5 67.5t-43 80t-24 85t-7.5 82t7.5 82t24 85t43 80t65.5 67.5t91 46.5t119 17t119 -17t91 -46.5t65.5 -67.5t43 -80t24 -85t7.5 -82zM639 359
q0 63 -17 116.5t-49.5 92.5t-79 61t-104.5 22q-59 0 -105 -22t-78.5 -61t-49.5 -92.5t-17 -116.5t17 -116.5t49.5 -92.5t78.5 -61t105 -22q58 0 104.5 22t79 61t49.5 92.5t17 116.5z" />
    <glyph glyph-name="Oacute" unicode="&#xd3;" horiz-adv-x="778" 
d="M412 788h-67l89 141h108zM739 359q0 -39 -7.5 -82t-24 -85t-43 -80t-65.5 -67.5t-91 -46.5t-119 -17t-119 17t-91 46.5t-65.5 67.5t-43 80t-24 85t-7.5 82t7.5 82t24 85t43 80t65.5 67.5t91 46.5t119 17t119 -17t91 -46.5t65.5 -67.5t43 -80t24 -85t7.5 -82zM639 359
q0 63 -17 116.5t-49.5 92.5t-79 61t-104.5 22q-59 0 -105 -22t-78.5 -61t-49.5 -92.5t-17 -116.5t17 -116.5t49.5 -92.5t78.5 -61t105 -22q58 0 104.5 22t79 61t49.5 92.5t17 116.5z" />
    <glyph glyph-name="Ocircumflex" unicode="&#xd4;" horiz-adv-x="778" 
d="M323 788h-79l99 141h93l99 -141h-80l-66 93zM739 359q0 -39 -7.5 -82t-24 -85t-43 -80t-65.5 -67.5t-91 -46.5t-119 -17t-119 17t-91 46.5t-65.5 67.5t-43 80t-24 85t-7.5 82t7.5 82t24 85t43 80t65.5 67.5t91 46.5t119 17t119 -17t91 -46.5t65.5 -67.5t43 -80t24 -85
t7.5 -82zM639 359q0 63 -17 116.5t-49.5 92.5t-79 61t-104.5 22q-59 0 -105 -22t-78.5 -61t-49.5 -92.5t-17 -116.5t17 -116.5t49.5 -92.5t78.5 -61t105 -22q58 0 104.5 22t79 61t49.5 92.5t17 116.5z" />
    <glyph glyph-name="Otilde" unicode="&#xd5;" horiz-adv-x="778" 
d="M560 917q-5 -45 -31 -77t-69 -32q-14 0 -26.5 3t-32.5 10l-26 9q-26 9 -39 12t-22 3q-20 0 -30.5 -12t-16.5 -32h-48q3 22 10 41.5t19.5 34t31 23t43.5 8.5q20 0 36 -4.5t32 -10.5l22 -9q14 -6 27.5 -9.5t19.5 -3.5q15 0 24 4.5t14.5 11.5t7.5 15t4 15h50zM739 359
q0 -39 -7.5 -82t-24 -85t-43 -80t-65.5 -67.5t-91 -46.5t-119 -17t-119 17t-91 46.5t-65.5 67.5t-43 80t-24 85t-7.5 82t7.5 82t24 85t43 80t65.5 67.5t91 46.5t119 17t119 -17t91 -46.5t65.5 -67.5t43 -80t24 -85t7.5 -82zM639 359q0 63 -17 116.5t-49.5 92.5t-79 61
t-104.5 22q-59 0 -105 -22t-78.5 -61t-49.5 -92.5t-17 -116.5t17 -116.5t49.5 -92.5t78.5 -61t105 -22q58 0 104.5 22t79 61t49.5 92.5t17 116.5z" />
    <glyph glyph-name="Odieresis" unicode="&#xd6;" horiz-adv-x="778" 
d="M516 799h-91v102h91v-102zM354 799h-91v102h91v-102zM739 359q0 -39 -7.5 -82t-24 -85t-43 -80t-65.5 -67.5t-91 -46.5t-119 -17t-119 17t-91 46.5t-65.5 67.5t-43 80t-24 85t-7.5 82t7.5 82t24 85t43 80t65.5 67.5t91 46.5t119 17t119 -17t91 -46.5t65.5 -67.5t43 -80
t24 -85t7.5 -82zM639 359q0 63 -17 116.5t-49.5 92.5t-79 61t-104.5 22q-59 0 -105 -22t-78.5 -61t-49.5 -92.5t-17 -116.5t17 -116.5t49.5 -92.5t78.5 -61t105 -22q58 0 104.5 22t79 61t49.5 92.5t17 116.5z" />
    <glyph glyph-name="multiply" unicode="&#xd7;" horiz-adv-x="584" 
d="M39 455l52 51l201 -201l202 201l51 -51l-201 -202l201 -202l-51 -51l-202 201l-202 -201l-51 51l202 202z" />
    <glyph glyph-name="Oslash" unicode="&#xd8;" horiz-adv-x="778" 
d="M657 616q45 -58 63.5 -127t18.5 -130q0 -39 -7.5 -82t-24 -85t-43 -80t-65.5 -67.5t-91 -46.5t-119 -17q-79 0 -137 24t-99 63l-80 -87l-32 28l83 90q-23 29 -39.5 61.5t-26.5 66.5t-14.5 67.5t-4.5 64.5q0 39 7.5 82t24 85t43 80t65.5 67.5t91 46.5t119 17
q81 0 140 -24.5t99 -64.5l81 89l31 -30zM564 578q-32 35 -76 54t-99 19q-59 0 -105 -22t-78.5 -61t-49.5 -92.5t-17 -116.5q0 -55 13 -102.5t38 -85.5zM217 138q32 -34 75 -52.5t97 -18.5q58 0 104.5 22t79 61t49.5 92.5t17 116.5q0 110 -49 184z" />
    <glyph glyph-name="Ugrave" unicode="&#xd9;" horiz-adv-x="722" 
d="M209 929h108l89 -141h-67zM644 718v-466q0 -55 -17.5 -104.5t-53 -86.5t-90 -58.5t-128.5 -21.5q-72 0 -124.5 21.5t-86 57.5t-49.5 82.5t-16 96.5v479h97v-452q0 -59 16 -97t42 -61t58.5 -32t65.5 -9t67 9t61 31t44 60t17 97v454h97z" />
    <glyph glyph-name="Uacute" unicode="&#xda;" horiz-adv-x="722" 
d="M384 788h-67l89 141h108zM644 718v-466q0 -55 -17.5 -104.5t-53 -86.5t-90 -58.5t-128.5 -21.5q-72 0 -124.5 21.5t-86 57.5t-49.5 82.5t-16 96.5v479h97v-452q0 -59 16 -97t42 -61t58.5 -32t65.5 -9t67 9t61 31t44 60t17 97v454h97z" />
    <glyph glyph-name="Ucircumflex" unicode="&#xdb;" horiz-adv-x="722" 
d="M295 788h-79l99 141h93l99 -141h-80l-66 93zM644 718v-466q0 -55 -17.5 -104.5t-53 -86.5t-90 -58.5t-128.5 -21.5q-72 0 -124.5 21.5t-86 57.5t-49.5 82.5t-16 96.5v479h97v-452q0 -59 16 -97t42 -61t58.5 -32t65.5 -9t67 9t61 31t44 60t17 97v454h97z" />
    <glyph glyph-name="Udieresis" unicode="&#xdc;" horiz-adv-x="722" 
d="M488 799h-91v102h91v-102zM326 799h-91v102h91v-102zM644 718v-466q0 -55 -17.5 -104.5t-53 -86.5t-90 -58.5t-128.5 -21.5q-72 0 -124.5 21.5t-86 57.5t-49.5 82.5t-16 96.5v479h97v-452q0 -59 16 -97t42 -61t58.5 -32t65.5 -9t67 9t61 31t44 60t17 97v454h97z" />
    <glyph glyph-name="Yacute" unicode="&#xdd;" horiz-adv-x="667" 
d="M356 788h-67l89 141h108zM382 0h-97v289l-271 429h113l206 -345l206 345h114l-271 -429v-289z" />
    <glyph glyph-name="Thorn" unicode="&#xde;" horiz-adv-x="667" 
d="M86 718h97v-119h226q50 0 89.5 -15.5t67 -42.5t42 -64t14.5 -80q0 -38 -11.5 -75.5t-36.5 -68.5t-66 -50t-99 -19h-226v-184h-97v718zM183 267h193q33 0 59.5 6.5t46 21.5t30 40t10.5 61q0 34 -11 57t-30 37t-45 20t-56 6h-197v-249z" />
    <glyph glyph-name="germandbls" unicode="&#xdf;" horiz-adv-x="611" 
d="M67 532q0 43 15 79t44 62t72.5 40.5t99.5 14.5q55 0 99.5 -13t75.5 -36.5t47.5 -56.5t16.5 -74q0 -36 -9.5 -62t-23 -43t-27 -27t-22.5 -16q28 -8 49.5 -25.5t36.5 -40.5t22.5 -48.5t7.5 -47.5q0 -66 -19.5 -114t-53 -79t-79.5 -45.5t-100 -14.5q-22 0 -32 2.5t-21 4.5
v75q22 -3 44 -3q82 0 126 37t44 113q0 39 -12 66t-34.5 43.5t-54 23.5t-69.5 7q-23 0 -39 -4v79q7 -1 12 -1.5t11 -0.5q45 0 75 9.5t47.5 25t25 36t7.5 42.5q0 48 -38 80t-114 32q-42 0 -69.5 -10t-43.5 -29t-22.5 -45t-6.5 -58v-510h-88v532z" />
    <glyph glyph-name="agrave" unicode="&#xe0;" 
d="M126 734h108l89 -141h-67zM384 267q-5 -4 -13 -8t-24 -7.5t-41.5 -8t-66.5 -9.5q-16 -2 -35.5 -6.5t-36.5 -13.5t-28.5 -24.5t-11.5 -40.5q0 -43 22.5 -67t72.5 -24q31 0 60 9.5t51.5 26t36.5 39t14 48.5v86zM62 364q1 47 17 80t44 54t67.5 30.5t87.5 9.5q10 0 28.5 -1.5
t40.5 -6.5t44 -14.5t40 -26t29.5 -40.5t11.5 -57v-301q0 -31 29 -31q6 0 13.5 1t15.5 3v-64q-11 -3 -22 -6.5t-26 -3.5q-29 0 -47 7t-27.5 18t-13.5 25.5t-5 29.5q-13 -14 -29.5 -29t-39.5 -27.5t-52.5 -20.5t-67.5 -8q-36 0 -66 11t-52 31t-34 47.5t-12 61.5q0 16 4.5 41.5
t20.5 50.5t47.5 45t86.5 27l145 18q8 1 16 3.5t15 9t11 18t4 31.5q0 85 -123 85q-38 0 -60.5 -10t-35 -25.5t-17.5 -33t-7 -32.5h-81z" />
    <glyph glyph-name="aacute" unicode="&#xe1;" 
d="M301 593h-67l89 141h108zM384 267q-5 -4 -13 -8t-24 -7.5t-41.5 -8t-66.5 -9.5q-16 -2 -35.5 -6.5t-36.5 -13.5t-28.5 -24.5t-11.5 -40.5q0 -43 22.5 -67t72.5 -24q31 0 60 9.5t51.5 26t36.5 39t14 48.5v86zM62 364q1 47 17 80t44 54t67.5 30.5t87.5 9.5q10 0 28.5 -1.5
t40.5 -6.5t44 -14.5t40 -26t29.5 -40.5t11.5 -57v-301q0 -31 29 -31q6 0 13.5 1t15.5 3v-64q-11 -3 -22 -6.5t-26 -3.5q-29 0 -47 7t-27.5 18t-13.5 25.5t-5 29.5q-13 -14 -29.5 -29t-39.5 -27.5t-52.5 -20.5t-67.5 -8q-36 0 -66 11t-52 31t-34 47.5t-12 61.5q0 16 4.5 41.5
t20.5 50.5t47.5 45t86.5 27l145 18q8 1 16 3.5t15 9t11 18t4 31.5q0 85 -123 85q-38 0 -60.5 -10t-35 -25.5t-17.5 -33t-7 -32.5h-81z" />
    <glyph glyph-name="acircumflex" unicode="&#xe2;" 
d="M212 593h-79l99 141h93l99 -141h-80l-66 93zM384 267q-5 -4 -13 -8t-24 -7.5t-41.5 -8t-66.5 -9.5q-16 -2 -35.5 -6.5t-36.5 -13.5t-28.5 -24.5t-11.5 -40.5q0 -43 22.5 -67t72.5 -24q31 0 60 9.5t51.5 26t36.5 39t14 48.5v86zM62 364q1 47 17 80t44 54t67.5 30.5
t87.5 9.5q10 0 28.5 -1.5t40.5 -6.5t44 -14.5t40 -26t29.5 -40.5t11.5 -57v-301q0 -31 29 -31q6 0 13.5 1t15.5 3v-64q-11 -3 -22 -6.5t-26 -3.5q-29 0 -47 7t-27.5 18t-13.5 25.5t-5 29.5q-13 -14 -29.5 -29t-39.5 -27.5t-52.5 -20.5t-67.5 -8q-36 0 -66 11t-52 31
t-34 47.5t-12 61.5q0 16 4.5 41.5t20.5 50.5t47.5 45t86.5 27l145 18q8 1 16 3.5t15 9t11 18t4 31.5q0 85 -123 85q-38 0 -60.5 -10t-35 -25.5t-17.5 -33t-7 -32.5h-81z" />
    <glyph glyph-name="atilde" unicode="&#xe3;" 
d="M439 722q-5 -45 -31 -77t-69 -32q-14 0 -26.5 3t-32.5 10l-26 9q-26 9 -39 12t-22 3q-20 0 -30.5 -12t-16.5 -32h-48q3 22 10 41.5t19.5 34t31 23t43.5 8.5q20 0 36 -4.5t32 -10.5l22 -9q14 -6 27.5 -9.5t19.5 -3.5q15 0 24 4.5t14.5 11.5t7.5 15t4 15h50zM384 267
q-5 -4 -13 -8t-24 -7.5t-41.5 -8t-66.5 -9.5q-16 -2 -35.5 -6.5t-36.5 -13.5t-28.5 -24.5t-11.5 -40.5q0 -43 22.5 -67t72.5 -24q31 0 60 9.5t51.5 26t36.5 39t14 48.5v86zM62 364q1 47 17 80t44 54t67.5 30.5t87.5 9.5q10 0 28.5 -1.5t40.5 -6.5t44 -14.5t40 -26
t29.5 -40.5t11.5 -57v-301q0 -31 29 -31q6 0 13.5 1t15.5 3v-64q-11 -3 -22 -6.5t-26 -3.5q-29 0 -47 7t-27.5 18t-13.5 25.5t-5 29.5q-13 -14 -29.5 -29t-39.5 -27.5t-52.5 -20.5t-67.5 -8q-36 0 -66 11t-52 31t-34 47.5t-12 61.5q0 16 4.5 41.5t20.5 50.5t47.5 45t86.5 27
l145 18q8 1 16 3.5t15 9t11 18t4 31.5q0 85 -123 85q-38 0 -60.5 -10t-35 -25.5t-17.5 -33t-7 -32.5h-81z" />
    <glyph glyph-name="adieresis" unicode="&#xe4;" 
d="M405 604h-91v102h91v-102zM243 604h-91v102h91v-102zM384 267q-5 -4 -13 -8t-24 -7.5t-41.5 -8t-66.5 -9.5q-16 -2 -35.5 -6.5t-36.5 -13.5t-28.5 -24.5t-11.5 -40.5q0 -43 22.5 -67t72.5 -24q31 0 60 9.5t51.5 26t36.5 39t14 48.5v86zM62 364q1 47 17 80t44 54
t67.5 30.5t87.5 9.5q10 0 28.5 -1.5t40.5 -6.5t44 -14.5t40 -26t29.5 -40.5t11.5 -57v-301q0 -31 29 -31q6 0 13.5 1t15.5 3v-64q-11 -3 -22 -6.5t-26 -3.5q-29 0 -47 7t-27.5 18t-13.5 25.5t-5 29.5q-13 -14 -29.5 -29t-39.5 -27.5t-52.5 -20.5t-67.5 -8q-36 0 -66 11
t-52 31t-34 47.5t-12 61.5q0 16 4.5 41.5t20.5 50.5t47.5 45t86.5 27l145 18q8 1 16 3.5t15 9t11 18t4 31.5q0 85 -123 85q-38 0 -60.5 -10t-35 -25.5t-17.5 -33t-7 -32.5h-81z" />
    <glyph glyph-name="aring" unicode="&#xe5;" 
d="M227 664q0 -22 15 -37t37 -15t37 15t15 37t-15 37t-37 15t-37 -15t-15 -37zM279 756q40 0 66 -26t26 -66t-26 -66t-66 -26t-66 26t-26 66t26 66t66 26zM384 267q-5 -4 -13 -8t-24 -7.5t-41.5 -8t-66.5 -9.5q-16 -2 -35.5 -6.5t-36.5 -13.5t-28.5 -24.5t-11.5 -40.5
q0 -43 22.5 -67t72.5 -24q31 0 60 9.5t51.5 26t36.5 39t14 48.5v86zM62 364q1 47 17 80t44 54t67.5 30.5t87.5 9.5q10 0 28.5 -1.5t40.5 -6.5t44 -14.5t40 -26t29.5 -40.5t11.5 -57v-301q0 -31 29 -31q6 0 13.5 1t15.5 3v-64q-11 -3 -22 -6.5t-26 -3.5q-29 0 -47 7t-27.5 18
t-13.5 25.5t-5 29.5q-13 -14 -29.5 -29t-39.5 -27.5t-52.5 -20.5t-67.5 -8q-36 0 -66 11t-52 31t-34 47.5t-12 61.5q0 16 4.5 41.5t20.5 50.5t47.5 45t86.5 27l145 18q8 1 16 3.5t15 9t11 18t4 31.5q0 85 -123 85q-38 0 -60.5 -10t-35 -25.5t-17.5 -33t-7 -32.5h-81z" />
    <glyph glyph-name="ae" unicode="&#xe6;" horiz-adv-x="889" 
d="M384 267q-5 -4 -13 -8t-24 -7.5t-41.5 -8t-66.5 -9.5q-16 -2 -35.5 -6.5t-36.5 -13.5t-28.5 -24.5t-11.5 -40.5q0 -43 22.5 -67t72.5 -24q31 0 60 9.5t51.5 26t36.5 39t14 48.5v86zM840 164q-1 -9 -6.5 -26.5t-16.5 -38t-28 -41.5t-42 -37q-9 -6 -20.5 -12.5t-28 -11.5
t-39.5 -8.5t-54 -3.5q-47 0 -80 12t-55.5 29t-36 35.5t-20.5 32.5q-38 -58 -90 -83.5t-123 -25.5q-36 0 -66 11t-52 31t-34 47.5t-12 61.5q0 16 4.5 41.5t20.5 50.5t47.5 45t86.5 27l145 18q8 1 16 3.5t15 9t11 18t4 31.5q0 85 -123 85q-38 0 -60.5 -10t-35 -25.5t-17.5 -33
t-7 -32.5h-81q1 47 17 80t44 54t67.5 30.5t87.5 9.5q37 0 63.5 -6t45.5 -16.5t33 -23.5t28 -28q11 10 24.5 23t34 24.5t48.5 19t67 7.5q57 0 99 -21.5t70 -61.5t42 -96.5t14 -125.5h-382q0 -82 38 -127t114 -45q31 0 55.5 10.5t42 26.5t27 33.5t10.5 32.5h88zM756 303
q-2 30 -10 58.5t-25 50t-44 34.5t-67 13q-30 0 -56.5 -13t-46 -34.5t-31 -50t-11.5 -58.5h291z" />
    <glyph glyph-name="ccedilla" unicode="&#xe7;" horiz-adv-x="500" 
d="M172 -163q19 -8 32.5 -11.5t32.5 -3.5q7 0 16.5 1.5t18.5 6t15 12.5t6 22q0 12 -5.5 19.5t-13 12t-16 6t-13.5 1.5q-7 0 -15 -1.5t-24 -6.5l-17 19l54 73q-51 4 -90.5 25t-66.5 55.5t-41.5 80t-14.5 99.5q0 61 15 114t45.5 92.5t78 62t112.5 22.5q51 0 87 -17t59.5 -44.5
t35 -61.5t14.5 -68h-85q-8 53 -38 82.5t-86 29.5q-41 0 -68.5 -17.5t-44.5 -46t-24 -63.5t-7 -70q0 -34 5.5 -69.5t21 -65t43.5 -48t73 -18.5t79.5 32t45.5 92h85q-3 -29 -14 -62t-32.5 -61.5t-56 -49t-83.5 -24.5l-37 -50q8 2 14.5 3t16.5 1q24 0 40.5 -7t26 -18.5
t13.5 -24.5t4 -25q0 -39 -31 -65.5t-87 -26.5q-28 0 -52 7t-44 15z" />
    <glyph glyph-name="egrave" unicode="&#xe8;" 
d="M126 734h108l89 -141h-67zM425 303q-2 30 -10 58.5t-25 50t-44 34.5t-67 13q-30 0 -56.5 -13t-46 -34.5t-31 -50t-11.5 -58.5h291zM509 164q-1 -9 -6.5 -26.5t-16.5 -38t-28 -41.5t-42 -37q-9 -6 -20.5 -12.5t-28 -11.5t-39.5 -8.5t-54 -3.5q-55 0 -98.5 19.5t-73.5 54.5
t-46 83t-16 105q0 61 15 114t45.5 92.5t78 62t112.5 22.5q57 0 99 -21.5t70 -61.5t42 -96.5t14 -125.5h-382q0 -82 38 -127t114 -45q31 0 55.5 10.5t42 26.5t27 33.5t10.5 32.5h88z" />
    <glyph glyph-name="eacute" unicode="&#xe9;" 
d="M301 593h-67l89 141h108zM425 303q-2 30 -10 58.5t-25 50t-44 34.5t-67 13q-30 0 -56.5 -13t-46 -34.5t-31 -50t-11.5 -58.5h291zM509 164q-1 -9 -6.5 -26.5t-16.5 -38t-28 -41.5t-42 -37q-9 -6 -20.5 -12.5t-28 -11.5t-39.5 -8.5t-54 -3.5q-55 0 -98.5 19.5t-73.5 54.5
t-46 83t-16 105q0 61 15 114t45.5 92.5t78 62t112.5 22.5q57 0 99 -21.5t70 -61.5t42 -96.5t14 -125.5h-382q0 -82 38 -127t114 -45q31 0 55.5 10.5t42 26.5t27 33.5t10.5 32.5h88z" />
    <glyph glyph-name="ecircumflex" unicode="&#xea;" 
d="M212 593h-79l99 141h93l99 -141h-80l-66 93zM425 303q-2 30 -10 58.5t-25 50t-44 34.5t-67 13q-30 0 -56.5 -13t-46 -34.5t-31 -50t-11.5 -58.5h291zM509 164q-1 -9 -6.5 -26.5t-16.5 -38t-28 -41.5t-42 -37q-9 -6 -20.5 -12.5t-28 -11.5t-39.5 -8.5t-54 -3.5
q-55 0 -98.5 19.5t-73.5 54.5t-46 83t-16 105q0 61 15 114t45.5 92.5t78 62t112.5 22.5q57 0 99 -21.5t70 -61.5t42 -96.5t14 -125.5h-382q0 -82 38 -127t114 -45q31 0 55.5 10.5t42 26.5t27 33.5t10.5 32.5h88z" />
    <glyph glyph-name="edieresis" unicode="&#xeb;" 
d="M405 604h-91v102h91v-102zM243 604h-91v102h91v-102zM425 303q-2 30 -10 58.5t-25 50t-44 34.5t-67 13q-30 0 -56.5 -13t-46 -34.5t-31 -50t-11.5 -58.5h291zM509 164q-1 -9 -6.5 -26.5t-16.5 -38t-28 -41.5t-42 -37q-9 -6 -20.5 -12.5t-28 -11.5t-39.5 -8.5t-54 -3.5
q-55 0 -98.5 19.5t-73.5 54.5t-46 83t-16 105q0 61 15 114t45.5 92.5t78 62t112.5 22.5q57 0 99 -21.5t70 -61.5t42 -96.5t14 -125.5h-382q0 -82 38 -127t114 -45q31 0 55.5 10.5t42 26.5t27 33.5t10.5 32.5h88z" />
    <glyph glyph-name="igrave" unicode="&#xec;" horiz-adv-x="278" 
d="M-13 734h108l89 -141h-67zM183 0h-88v523h88v-523z" />
    <glyph glyph-name="iacute" unicode="&#xed;" horiz-adv-x="278" 
d="M162 593h-67l89 141h108zM183 0h-88v523h88v-523z" />
    <glyph glyph-name="icircumflex" unicode="&#xee;" horiz-adv-x="278" 
d="M73 593h-79l99 141h93l99 -141h-80l-66 93zM183 0h-88v523h88v-523z" />
    <glyph glyph-name="idieresis" unicode="&#xef;" horiz-adv-x="278" 
d="M266 604h-91v102h91v-102zM104 604h-91v102h91v-102zM183 0h-88v523h88v-523z" />
    <glyph glyph-name="eth" unicode="&#xf0;" 
d="M362 646q77 -71 118.5 -161t41.5 -187q0 -90 -22.5 -150t-57 -96.5t-76 -51.5t-80.5 -15q-66 0 -113 23.5t-78 61.5t-45.5 86t-14.5 98q0 49 15 97.5t44 86.5t71.5 61.5t98.5 23.5q12 0 28 -1.5t33.5 -7t35.5 -16.5t36 -30l2 2q-17 43 -48 79.5t-63 62.5l-124 -62l-42 42
l118 57q-41 32 -89 52l74 36q52 -20 91 -51l106 51l47 -40zM126 254q0 -21 5.5 -53.5t22 -63.5t46.5 -53.5t78 -22.5t77.5 22.5t46 53.5t22.5 63.5t6 53.5t-6 53.5t-22.5 63.5t-46 53.5t-77.5 22.5t-78 -22.5t-46.5 -53.5t-22 -63.5t-5.5 -53.5z" />
    <glyph glyph-name="ntilde" unicode="&#xf1;" 
d="M439 722q-5 -45 -31 -77t-69 -32q-14 0 -26.5 3t-32.5 10l-26 9q-26 9 -39 12t-22 3q-20 0 -30.5 -12t-16.5 -32h-48q3 22 10 41.5t19.5 34t31 23t43.5 8.5q20 0 36 -4.5t32 -10.5l22 -9q14 -6 27.5 -9.5t19.5 -3.5q15 0 24 4.5t14.5 11.5t7.5 15t4 15h50zM491 0h-88v322
q0 68 -24 102.5t-88 34.5q-19 0 -43 -7t-45 -26.5t-35.5 -53.5t-14.5 -87v-285h-88v523h83v-74h2q7 10 20 25.5t32.5 29.5t45.5 24t60 10q30 0 62.5 -7.5t59.5 -27.5t44 -55.5t17 -91.5v-356z" />
    <glyph glyph-name="ograve" unicode="&#xf2;" 
d="M126 734h108l89 -141h-67zM126 262q0 -26 6 -60.5t22.5 -65.5t46.5 -52.5t77 -21.5t77 21.5t46.5 52.5t22.5 65.5t6 60.5t-6 60.5t-22.5 65.5t-46.5 52.5t-77 21.5t-77 -21.5t-46.5 -52.5t-22.5 -65.5t-6 -60.5zM35 262q0 51 14.5 100.5t44.5 88.5t75.5 63t108.5 24
t108.5 -24t75.5 -63t44.5 -88.5t14.5 -100.5t-14.5 -100.5t-44.5 -88.5t-75.5 -63t-108.5 -24t-108.5 24t-75.5 63t-44.5 88.5t-14.5 100.5z" />
    <glyph glyph-name="oacute" unicode="&#xf3;" 
d="M301 593h-67l89 141h108zM126 262q0 -26 6 -60.5t22.5 -65.5t46.5 -52.5t77 -21.5t77 21.5t46.5 52.5t22.5 65.5t6 60.5t-6 60.5t-22.5 65.5t-46.5 52.5t-77 21.5t-77 -21.5t-46.5 -52.5t-22.5 -65.5t-6 -60.5zM35 262q0 51 14.5 100.5t44.5 88.5t75.5 63t108.5 24
t108.5 -24t75.5 -63t44.5 -88.5t14.5 -100.5t-14.5 -100.5t-44.5 -88.5t-75.5 -63t-108.5 -24t-108.5 24t-75.5 63t-44.5 88.5t-14.5 100.5z" />
    <glyph glyph-name="ocircumflex" unicode="&#xf4;" 
d="M212 593h-79l99 141h93l99 -141h-80l-66 93zM126 262q0 -26 6 -60.5t22.5 -65.5t46.5 -52.5t77 -21.5t77 21.5t46.5 52.5t22.5 65.5t6 60.5t-6 60.5t-22.5 65.5t-46.5 52.5t-77 21.5t-77 -21.5t-46.5 -52.5t-22.5 -65.5t-6 -60.5zM35 262q0 51 14.5 100.5t44.5 88.5
t75.5 63t108.5 24t108.5 -24t75.5 -63t44.5 -88.5t14.5 -100.5t-14.5 -100.5t-44.5 -88.5t-75.5 -63t-108.5 -24t-108.5 24t-75.5 63t-44.5 88.5t-14.5 100.5z" />
    <glyph glyph-name="otilde" unicode="&#xf5;" 
d="M449 722q-5 -45 -31 -77t-69 -32q-14 0 -26.5 3t-32.5 10l-26 9q-26 9 -39 12t-22 3q-20 0 -30.5 -12t-16.5 -32h-48q3 22 10 41.5t19.5 34t31 23t43.5 8.5q20 0 36 -4.5t32 -10.5l22 -9q14 -6 27.5 -9.5t19.5 -3.5q15 0 24 4.5t14.5 11.5t7.5 15t4 15h50zM126 262
q0 -26 6 -60.5t22.5 -65.5t46.5 -52.5t77 -21.5t77 21.5t46.5 52.5t22.5 65.5t6 60.5t-6 60.5t-22.5 65.5t-46.5 52.5t-77 21.5t-77 -21.5t-46.5 -52.5t-22.5 -65.5t-6 -60.5zM35 262q0 51 14.5 100.5t44.5 88.5t75.5 63t108.5 24t108.5 -24t75.5 -63t44.5 -88.5
t14.5 -100.5t-14.5 -100.5t-44.5 -88.5t-75.5 -63t-108.5 -24t-108.5 24t-75.5 63t-44.5 88.5t-14.5 100.5z" />
    <glyph glyph-name="odieresis" unicode="&#xf6;" 
d="M405 604h-91v102h91v-102zM243 604h-91v102h91v-102zM126 262q0 -26 6 -60.5t22.5 -65.5t46.5 -52.5t77 -21.5t77 21.5t46.5 52.5t22.5 65.5t6 60.5t-6 60.5t-22.5 65.5t-46.5 52.5t-77 21.5t-77 -21.5t-46.5 -52.5t-22.5 -65.5t-6 -60.5zM35 262q0 51 14.5 100.5
t44.5 88.5t75.5 63t108.5 24t108.5 -24t75.5 -63t44.5 -88.5t14.5 -100.5t-14.5 -100.5t-44.5 -88.5t-75.5 -63t-108.5 -24t-108.5 24t-75.5 63t-44.5 88.5t-14.5 100.5z" />
    <glyph glyph-name="divide" unicode="&#xf7;" horiz-adv-x="584" 
d="M224 49q0 29 20.5 48.5t47.5 19.5q28 0 48 -20t20 -48q0 -26 -20 -47t-48 -21q-27 0 -47.5 20t-20.5 48zM224 456q0 29 20.5 48.5t47.5 19.5q28 0 48 -20t20 -48q0 -26 -20 -47t-48 -21q-27 0 -47.5 20t-20.5 48zM39 216v73h506v-73h-506z" />
    <glyph glyph-name="oslash" unicode="&#xf8;" horiz-adv-x="611" 
d="M174 108q17 -20 42.5 -33t61.5 -13q47 0 77 21.5t46.5 52.5t22.5 65.5t6 60.5q0 23 -4.5 53t-17.5 58zM387 410q-17 23 -44 37.5t-65 14.5q-47 0 -77 -21.5t-46.5 -52.5t-22.5 -65.5t-6 -60.5q0 -25 5.5 -57t19.5 -62zM468 441q27 -38 40 -84.5t13 -94.5
q0 -51 -14.5 -100.5t-44.5 -88.5t-75.5 -63t-108.5 -24q-51 0 -90.5 16t-68.5 44l-60 -68l-31 26l64 72q-29 38 -43 86.5t-14 99.5t14.5 100.5t44.5 88.5t75.5 63t108.5 24q54 0 94.5 -17.5t69.5 -47.5l64 72l31 -26z" />
    <glyph glyph-name="ugrave" unicode="&#xf9;" 
d="M126 734h108l89 -141h-67zM406 0v76l-2 2q-28 -46 -65.5 -69.5t-100.5 -23.5q-29 0 -59 7.5t-55 26.5t-40.5 50t-15.5 78v376h88v-347q0 -32 8 -54t21.5 -35.5t32 -19.5t39.5 -6q42 0 69.5 16.5t44 42t23.5 56t7 59.5v288h88v-523h-83z" />
    <glyph glyph-name="uacute" unicode="&#xfa;" 
d="M301 593h-67l89 141h108zM406 0v76l-2 2q-28 -46 -65.5 -69.5t-100.5 -23.5q-29 0 -59 7.5t-55 26.5t-40.5 50t-15.5 78v376h88v-347q0 -32 8 -54t21.5 -35.5t32 -19.5t39.5 -6q42 0 69.5 16.5t44 42t23.5 56t7 59.5v288h88v-523h-83z" />
    <glyph glyph-name="ucircumflex" unicode="&#xfb;" 
d="M212 593h-79l99 141h93l99 -141h-80l-66 93zM406 0v76l-2 2q-28 -46 -65.5 -69.5t-100.5 -23.5q-29 0 -59 7.5t-55 26.5t-40.5 50t-15.5 78v376h88v-347q0 -32 8 -54t21.5 -35.5t32 -19.5t39.5 -6q42 0 69.5 16.5t44 42t23.5 56t7 59.5v288h88v-523h-83z" />
    <glyph glyph-name="udieresis" unicode="&#xfc;" 
d="M405 604h-91v102h91v-102zM243 604h-91v102h91v-102zM406 0v76l-2 2q-28 -46 -65.5 -69.5t-100.5 -23.5q-29 0 -59 7.5t-55 26.5t-40.5 50t-15.5 78v376h88v-347q0 -32 8 -54t21.5 -35.5t32 -19.5t39.5 -6q42 0 69.5 16.5t44 42t23.5 56t7 59.5v288h88v-523h-83z" />
    <glyph glyph-name="yacute" unicode="&#xfd;" horiz-adv-x="500" 
d="M273 593h-67l89 141h108zM392 523h97q-46 -129 -91.5 -256.5t-96.5 -256.5q-31 -80 -51 -124.5t-40 -67t-46 -27.5t-68 -5q-10 0 -18 2.5t-19 5.5v80q8 -3 21.5 -6t31.5 -3q17 0 28 3.5t20 16.5t19 36.5t26 64.5l-194 537h100l139 -426h2z" />
    <glyph glyph-name="thorn" unicode="&#xfe;" 
d="M58 718h88v-267h2q7 10 18 25t28.5 29t43 23.5t61.5 9.5q52 0 92.5 -20t68.5 -55.5t42.5 -83t14.5 -102.5q0 -47 -11 -98.5t-37.5 -94.5t-70.5 -71t-111 -28q-53 0 -87.5 21t-51.5 49h-2v-262h-88v925zM142 237q0 -52 14.5 -86t36 -54t46.5 -28t46 -8q36 0 62.5 15.5
t44 42.5t26 64t8.5 80q0 25 -3 59t-17.5 64.5t-43 51.5t-79.5 21q-48 0 -76 -22.5t-42.5 -56.5t-18.5 -72.5t-4 -70.5z" />
    <glyph glyph-name="ydieresis" unicode="&#xff;" horiz-adv-x="500" 
d="M377 604h-91v102h91v-102zM215 604h-91v102h91v-102zM392 523h97q-46 -129 -91.5 -256.5t-96.5 -256.5q-31 -80 -51 -124.5t-40 -67t-46 -27.5t-68 -5q-10 0 -18 2.5t-19 5.5v80q8 -3 21.5 -6t31.5 -3q17 0 28 3.5t20 16.5t19 36.5t26 64.5l-194 537h100l139 -426h2z" />
    <glyph glyph-name="exclam" unicode="!" horiz-adv-x="278" 
d="M114 171l-24 310v237h97v-237l-24 -310h-49zM187 0h-97v102h97v-102z" />
    <glyph glyph-name="fraction" unicode="&#x2215;" horiz-adv-x="167" 
d="M-109 -19h-57l442 722h57z" />
    <glyph glyph-name="fi" unicode="&#xfb01;" horiz-adv-x="500" 
d="M346 618v100h88v-100h-88zM434 0h-88v523h88v-523zM174 450v-450h-88v450h-72v73h72v90q0 60 35.5 87.5t100.5 27.5q10 0 19.5 -0.5t20.5 -1.5v-79q-8 1 -18 1.5t-18 0.5q-29 0 -40.5 -14.5t-11.5 -46.5v-65h88v-73h-88z" />
    <glyph glyph-name="fl" unicode="&#xfb02;" horiz-adv-x="500" 
d="M432 0h-88v718h88v-718zM174 450v-450h-88v450h-72v73h72v90q0 60 35.5 87.5t100.5 27.5q10 0 19.5 -0.5t20.5 -1.5v-79q-8 1 -18 1.5t-18 0.5q-29 0 -40.5 -14.5t-11.5 -46.5v-65h88v-73h-88z" />
    <glyph glyph-name="breve" unicode="&#x2d8;" horiz-adv-x="333" 
d="M321 731q-8 -74 -51.5 -105t-107.5 -31q-50 0 -78.5 16.5t-44 38.5t-20.5 45t-6 36h49q3 -9 8 -22.5t16 -25.5q11 -13 31.5 -22t52.5 -9q30 0 48.5 8t29.5 20t16.5 25.5t8.5 25.5h48z" />
    <glyph glyph-name="dotaccent" unicode="&#x2d9;" horiz-adv-x="333" 
d="M212 604h-91v102h91v-102z" />
    <glyph glyph-name="ring" unicode="&#x2da;" horiz-adv-x="333" 
d="M115 664q0 -22 15 -37t37 -15t37 15t15 37t-15 37t-37 15t-37 -15t-15 -37zM167 756q40 0 66 -26t26 -66t-26 -66t-66 -26t-66 26t-26 66t26 66t66 26z" />
    <glyph glyph-name="hungarumlaut" unicode="&#x2dd;" horiz-adv-x="333" 
d="M278 593h-67l89 141h109zM98 593h-67l89 141h109z" />
    <glyph glyph-name="ogonek" unicode="&#x2db;" horiz-adv-x="333" 
d="M287 -203q-11 -5 -37.5 -13.5t-58.5 -8.5q-56 0 -87 26.5t-31 65.5q0 12 4 30.5t15.5 38t33 37t56.5 27.5h67v-4q-31 -17 -50.5 -31.5t-30.5 -28.5t-15 -29.5t-4 -34.5q0 -17 6 -27t15 -15t18.5 -6.5t16.5 -1.5q19 0 32.5 3.5t32.5 11.5z" />
    <glyph glyph-name="caron" unicode="&#x2c7;" horiz-adv-x="333" 
d="M166 641l66 93h80l-99 -141h-93l-99 141h79z" />
    <glyph glyph-name="Lslash" unicode="&#x141;" 
d="M291 462l-118 -67v-309h364v-86h-461v344l-96 -55v58l96 55v316h97v-265l118 67v-58z" />
    <glyph glyph-name="dotlessi" unicode="&#x131;" horiz-adv-x="278" 
d="M183 0h-88v523h88v-523z" />
    <glyph glyph-name="lslash" unicode="&#x142;" horiz-adv-x="222" 
d="M155 385v-385h-88v339l-87 -50v58l87 50v321h88v-275l87 50v-58z" />
    <glyph glyph-name="minus" unicode="&#x2212;" horiz-adv-x="584" 
d="M39 216v73h506v-73h-506z" />
    </font>
</defs>
</svg>
